<?xml version="1.0" standalone="no"?>
<!DOCTYPE svg PUBLIC "-//W3C//DTD SVG 1.1//EN" "http://www.w3.org/Graphics/SVG/1.1/DTD/svg11.dtd" >
<svg xmlns="http://www.w3.org/2000/svg" xmlns:xlink="http://www.w3.org/1999/xlink" version="1.1">
<metadata>
Created by FontForge 20170731 at Tue Feb  6 14:50:31 2018
 By Aleksey,,,
Copyright (c) 2017 by Studio Kmzero &#38; Zetafonts. All rights reserved.
</metadata>
<defs>
<font id="HeadingPro-Bold" horiz-adv-x="868" >
  <font-face 
    font-family="Heading Pro"
    font-weight="800"
    font-stretch="normal"
    units-per-em="2048"
    panose-1="2 0 5 6 0 0 0 2 0 4"
    ascent="1638"
    descent="-410"
    x-height="1202"
    cap-height="1521"
    bbox="-305 -634 2123 1990"
    underline-thickness="102"
    underline-position="-409"
    unicode-range="U+000D-FB06"
  />
<missing-glyph horiz-adv-x="1374" 
 />
    <glyph glyph-name="ff" unicode="ff" horiz-adv-x="1198" 
d="M127 0v986h-130v217h130v8q0 200 53 289q65 109 236 109q117 0 207 -67l-15 -195q-35 19 -58 27q-47 15 -97 15q-57 0 -76 -40q-16 -36 -16 -138v-8h365v8q0 200 53 289q65 109 236 109q117 0 207 -67l-15 -195q-35 19 -58 27q-47 15 -97 15q-57 0 -76 -40
q-16 -36 -16 -138v-8h228v-217h-228v-986h-234v986h-365v-986h-234z" />
    <glyph glyph-name="fi" unicode="fi" horiz-adv-x="1025" 
d="M131 0v986h-131v217h131v8q0 202 53 289q66 109 235 109q118 0 197 -59l-15 -195q-63 34 -145 34q-58 0 -75 -40q-17 -38 -17 -138v-8h548v-1203h-232v986h-316v-986h-233zM794 1346q-70 0 -103 28t-33 88t33 88t103 28q74 0 107 -28t33 -88t-33 -88t-107 -28z" />
    <glyph glyph-name="fl" unicode="fl" horiz-adv-x="1044" 
d="M131 0v986h-131v217h131v8q0 209 68 301q89 121 331 121q117 0 252 -36q114 -30 153 -60v-1537h-232v1406q-90 19 -152 19q-122 0 -160 -59q-27 -40 -27 -155v-8h228v-217h-228v-986h-233z" />
    <glyph glyph-name="ffi" unicode="ffi" horiz-adv-x="1646" 
d="M127 0v986h-130v217h130v8q0 200 53 289q65 109 236 109q117 0 207 -67l-15 -195q-35 19 -58 27q-47 15 -97 15q-57 0 -76 -40q-16 -36 -16 -138v-8h365v8q0 200 53 289q65 109 236 109q117 0 207 -67l-15 -195q-35 19 -58 27q-47 15 -97 15q-57 0 -76 -40
q-16 -36 -16 -138v-8h362v-1h216v-1202h-232v986h-346v-986h-234v986h-365v-986h-234zM1420 1346q-70 0 -103 28t-33 88t33 88t103 28q74 0 107 -28t33 -88t-33 -88t-107 -28z" />
    <glyph glyph-name="ffl" unicode="ffl" horiz-adv-x="1659" 
d="M127 0v986h-130v217h130v8q0 200 53 289q65 109 236 109q117 0 207 -67l-15 -195q-35 19 -58 27q-47 15 -97 15q-57 0 -76 -40q-16 -36 -16 -138v-8h365v8q0 200 53 289q65 109 236 109q117 0 207 -67l-15 -195q-35 19 -58 27q-47 15 -97 15q-57 0 -76 -40
q-16 -36 -16 -138v-8h353v365h232v-1568h-232v986h-353v-986h-234v986h-365v-986h-234z" />
    <glyph glyph-name="f_t" unicode="ft" horiz-adv-x="1242" 
d="M1025 -20q-171 0 -236 109q-53 89 -53 289v608h-375v-986h-234v986h-130v217h130v8q0 200 53 289q65 109 236 109q117 0 207 -67l-15 -195q-35 19 -58 27q-47 15 -97 15q-57 0 -76 -40q-16 -36 -16 -138v-8h375v386h234v-386h228v-217h-228v-608q0 -103 16 -137
q18 -41 76 -41q53 0 97 16q23 7 58 26l15 -195q-90 -67 -207 -67z" />
    <glyph glyph-name="f_j" unicode="fj" horiz-adv-x="1048" 
d="M652 -407q-117 0 -207 67l15 195q25 -15 58 -26q44 -16 97 -16q58 0 76 41q16 34 16 137v995h-346v-986h-234v986h-130v217h130v8q0 200 53 289q65 109 236 109q117 0 207 -67l-15 -195q-35 19 -58 27q-47 15 -97 15q-57 0 -76 -40q-16 -36 -16 -138v-8h397v-1h183v-1211
q0 -200 -53 -289q-65 -109 -236 -109zM821 1346q-70 0 -103 28t-33 88t33 88t103 28q74 0 107 -28t33 -88t-33 -88t-107 -28z" />
    <glyph glyph-name=".notdef" horiz-adv-x="1374" 
 />
    <glyph glyph-name=".null" horiz-adv-x="0" 
 />
    <glyph glyph-name="uni000D" unicode="&#xd;" horiz-adv-x="370" 
 />
    <glyph glyph-name="NULL" horiz-adv-x="0" 
 />
    <glyph glyph-name="NULL" horiz-adv-x="0" 
 />
    <glyph glyph-name="space" unicode=" " horiz-adv-x="370" 
 />
    <glyph glyph-name="exclam" unicode="!" horiz-adv-x="470" 
d="M135 399l-35 1122h268l-32 -1122h-201zM232 -20q-72 0 -104.5 31.5t-32.5 97.5q0 68 32.5 99.5t104.5 31.5q75 0 108 -31t33 -100q0 -67 -33.5 -98t-107.5 -31z" />
    <glyph glyph-name="quotedbl" unicode="&#x22;" horiz-adv-x="674" 
d="M90 1097l-17 424h214l-18 -424h-179zM399 1097l-17 424h213l-18 -424h-178z" />
    <glyph glyph-name="numbersign" unicode="#" horiz-adv-x="863" 
d="M83 0l52 444h-102l8 154h112l44 369h-103l8 154h113l48 403h195l-49 -403h121l48 403h194l-49 -403h109l-7 -154h-120l-44 -369h110l-8 -154h-121l-53 -444h-191l52 444h-123l-53 -444h-191zM346 598h122l44 369h-122z" />
    <glyph glyph-name="dollar" unicode="$" horiz-adv-x="866" 
d="M307 -119v110q-137 27 -195 128q-53 92 -53 259v74h236v-72q0 -91 26 -127q28 -43 105 -43q73 0 105 45q28 39 28 115v12q0 91 -21 140q-25 54 -91 97l-143 93q-144 94 -190 187q-42 83 -42 239v27q0 156 58.5 244.5t176.5 118.5v112h238v-108q126 -26 186 -118t60 -253
v-84l-237 1l-1 96q0 67 -26 101q-32 38 -94 38q-67 0 -97 -44q-29 -40 -27 -113l1 -29q2 -62 30 -114t81 -83l129 -76q138 -82 193 -189q49 -94 54 -246v-50q0 -325 -252 -378v-110h-238z" />
    <glyph glyph-name="percent" unicode="%" horiz-adv-x="1588" 
d="M356 598q-156 0 -222 81q-58 71 -58 238v278q0 178 53 254q61 90 227 90q163 0 226 -90q51 -75 51 -254v-250q0 -181 -51 -256q-62 -91 -226 -91zM466 0l436 1521h224l-436 -1521h-224zM356 785q40 0 57 28.5t17 99.5v285q0 87 -12 117q-15 38 -62 38t-64 -38
q-12 -27 -12 -117v-257q0 -86 13 -117q16 -39 63 -39zM1236 -27q-156 0 -221 82q-58 73 -58 238v277q0 179 52 254q61 90 227 90q163 0 226 -90q51 -75 51 -254v-249q0 -180 -52 -257q-61 -91 -225 -91zM1236 161q40 0 57 28.5t17 99.5v283q0 88 -12 119q-15 38 -62 38
q-48 0 -64 -38q-13 -31 -13 -118v-256q0 -87 14 -117q17 -39 63 -39z" />
    <glyph glyph-name="ampersand" unicode="&#x26;" horiz-adv-x="930" 
d="M455 -20q-201 0 -291 117q-76 98 -76 291v151q0 106 41.5 176t114.5 90q-74 21 -107.5 90.5t-33.5 190.5v89q0 167 87 255q91 91 272 91h209l1 -218h-204q-66 0 -97 -40q-29 -38 -29 -107l-2 -92q-1 -85 30 -123t102 -38h114v115l237 -1v-115h72v-213h-72v-301
q0 -191 -76 -290q-91 -118 -292 -118zM453 210q79 0 111 60q22 42 22 135v282h-126q-66 0 -101 -43q-34 -42 -34 -105v-133q0 -98 24 -141q31 -55 104 -55z" />
    <glyph glyph-name="quotesingle" unicode="'" horiz-adv-x="361" 
d="M90 1097l-17 424h214l-18 -424h-179z" />
    <glyph glyph-name="parenleft" unicode="(" horiz-adv-x="543" 
d="M453 -105q-160 0 -245 70q-69 56 -95 160q-16 63 -16 173v924q0 100 13 160q23 105 93 166q86 76 250 76h19v-210h-19q-81 0 -109 -78q-15 -39 -15 -111v-938q0 -75 21 -119q29 -62 103 -62h19v-211h-19z" />
    <glyph glyph-name="parenright" unicode=")" horiz-adv-x="538" 
d="M65 -105v211h19q75 0 104 62q21 44 21 119v938q0 72 -14 111q-30 78 -111 78h-19v210h19q163 0 251 -76q69 -61 92 -166q13 -60 13 -160v-924q0 -110 -16 -173q-26 -104 -94 -160q-86 -70 -246 -70h-19z" />
    <glyph glyph-name="asterisk" unicode="*" horiz-adv-x="866" 
d="M577 792l-147 234l-146 -232l-146 105l177 212l-266 67l55 171l255 -102l-18 274h181l-19 -274l254 103l57 -173l-266 -67l176 -210z" />
    <glyph glyph-name="plus" unicode="+" horiz-adv-x="834" 
d="M315 373v227h-228v207h228v226h206v-226h226v-207h-226v-227h-206z" />
    <glyph glyph-name="comma" unicode="," horiz-adv-x="429" 
d="M242 -250l-105 61q34 45 51 86q13 32 20 83q-129 0 -129 129q0 68 33.5 99.5t104.5 31.5q142 0 142 -157q0 -116 -36 -206q-28 -71 -81 -127z" />
    <glyph glyph-name="hyphen" unicode="-" horiz-adv-x="638" 
d="M45 487v207h547v-207h-547z" />
    <glyph glyph-name="period" unicode="." horiz-adv-x="441" 
d="M217 -20q-71 0 -104.5 31.5t-33.5 97.5q0 68 33.5 99.5t104.5 31.5q75 0 108 -31t33 -100q0 -67 -33.5 -98t-107.5 -31z" />
    <glyph glyph-name="slash" unicode="/" horiz-adv-x="700" 
d="M17 -80l435 1679h231l-437 -1679h-229z" />
    <glyph glyph-name="zero" unicode="0" horiz-adv-x="871" 
d="M436 -20q-206 0 -289 126q-64 97 -64 298v713q0 202 65 300q83 125 288 125t290 -126q64 -97 64 -298v-713q0 -202 -65 -300q-84 -125 -289 -125zM436 210q76 0 101 59q16 38 16 136v712q0 99 -15 136q-25 60 -102 60q-75 0 -100 -59q-16 -38 -16 -137v-712
q0 -98 15 -134q25 -61 101 -61z" />
    <glyph glyph-name="one" unicode="1" horiz-adv-x="560" 
d="M223 0v1216q-29 -38 -98 -66q-53 -21 -124 -34v221q91 20 160 76q44 36 104 111h190v-1524h-232z" />
    <glyph glyph-name="two" unicode="2" horiz-adv-x="867" 
d="M86 0v208q25 130 152 333q58 92 109 165q129 183 182 313q30 73 30 142q0 73 -26 110q-30 42 -92 42q-68 0 -94 -51q-21 -38 -21 -113v-109h-237v133q0 175 83 270q89 102 273 102q351 0 351 -382q0 -149 -91 -326q-47 -88 -89 -151q-138 -209 -187 -300
q-41 -77 -65 -157h424v-229h-702z" />
    <glyph glyph-name="three" unicode="3" horiz-adv-x="866" 
d="M430 -20q-172 0 -261 90q-97 99 -97 299v91h236v-105q0 -69 32.5 -107t89.5 -38q63 0 91 36q33 42 33 138v135q0 82 -38 120q-34 31 -101 31l-85 2v218l93 3q60 0 88 40q31 45 31 152v56q0 87 -20 125q-27 47 -94 47q-60 0 -85 -38t-25 -111v-103h-238v90q0 198 82 292
q87 99 272 99q179 0 262 -98q83 -101 83 -315q0 -162 -36 -241q-33 -73 -110 -103q90 -27 126 -118q31 -81 31 -238q0 -247 -85 -349q-83 -100 -275 -100z" />
    <glyph glyph-name="four" unicode="4" horiz-adv-x="901" 
d="M497 0v239h-429v162l234 1120h243l-220 -1053h172v382h231v-382h100v-229h-100v-239h-231z" />
    <glyph glyph-name="five" unicode="5" horiz-adv-x="885" 
d="M449 -20q-185 0 -273 97q-81 88 -81 263v129h237v-131q0 -128 113 -128q43 0 67.5 14.5t36.5 48.5q18 52 18 245q0 176 -20 229q-12 30 -33.5 42t-59.5 12q-100 0 -123 -100v-27h-236l21 847h641v-230h-408l-14 -350q56 80 203 80q91 0 144.5 -27.5t81.5 -88.5
q26 -57 35.5 -150t9.5 -243q0 -304 -86 -421q-81 -111 -274 -111z" />
    <glyph glyph-name="six" unicode="6" horiz-adv-x="861" 
d="M433 -20q-206 0 -289 130q-64 99 -64 301v702q0 204 64 302q83 127 287 127q200 0 282 -125q60 -95 60 -277v-61h-237v43q0 88 -15 128q-25 63 -89 63q-75 0 -99 -63q-16 -43 -16 -154v-219q50 122 181 123q180 0 244 -130q45 -92 45 -302v-156q0 -202 -65 -303
q-84 -129 -289 -129zM433 210q74 0 101 68q16 44 16 151v122q0 108 -14 149q-24 70 -96 70q-75 0 -103 -65q-20 -47 -20 -155v-153q0 -91 17 -128q25 -59 99 -59z" />
    <glyph glyph-name="seven" unicode="7" horiz-adv-x="846" 
d="M200 0l341 1291h-266v-172h-219v402h738v-181l-345 -1340h-249z" />
    <glyph glyph-name="eight" unicode="8" horiz-adv-x="843" 
d="M423 -20q-200 0 -284 118q-70 96 -70 290v67q0 130 28.5 209.5t98.5 122.5q-117 81 -117 314v32q0 192 64 288q81 121 280 121q200 0 281 -121q63 -95 63 -288v-35q0 -106 -27 -181q-32 -86 -100 -131q73 -44 106 -129q30 -77 30 -190v-79q0 -196 -70 -291
q-85 -117 -283 -117zM423 904q70 0 92 64q14 39 14 126v21q0 98 -12 135q-22 63 -94 63q-74 0 -95 -61q-12 -34 -12 -136v-21q0 -91 13 -127q22 -64 94 -64zM423 210q71 0 98 57q19 42 19 139v60q0 99 -16 142q-27 67 -101 67q-73 0 -99 -68q-18 -45 -18 -141v-61
q0 -99 15 -135q25 -60 102 -60z" />
    <glyph glyph-name="nine" unicode="9" horiz-adv-x="835" 
d="M417 -19q-201 0 -281 126q-61 95 -61 277v60h237v-43q0 -86 16 -128q24 -63 88 -63q74 0 100 64q16 43 16 154v221q-49 -125 -182 -125q-181 0 -244 130q-45 91 -45 302v155q0 202 66 304q83 128 288 128q204 0 289 -129q64 -100 64 -302v-701q0 -204 -64 -302
q-84 -128 -287 -128zM408 753q72 0 101 59q21 42 23 143v140q0 110 -12 147q-23 72 -105 72q-75 0 -100 -69q-17 -44 -17 -151v-122q0 -106 15 -150q24 -69 95 -69z" />
    <glyph glyph-name="colon" unicode=":" horiz-adv-x="403" 
d="M198 960q-71 0 -104.5 31.5t-33.5 97.5q0 68 33.5 99.5t104.5 31.5q75 0 108 -31t33 -100q0 -67 -33.5 -98t-107.5 -31zM198 -20q-71 0 -104.5 31.5t-33.5 97.5q0 68 33.5 99.5t104.5 31.5q75 0 108 -31t33 -100q0 -67 -33.5 -98t-107.5 -31z" />
    <glyph glyph-name="semicolon" unicode=";" horiz-adv-x="404" 
d="M199 960q-71 0 -104.5 31.5t-33.5 97.5q0 68 33.5 99.5t104.5 31.5q75 0 108 -31t33 -100q0 -67 -33.5 -98t-107.5 -31zM224 -250l-105 61q34 45 51 86q13 32 20 83q-129 0 -129 129q0 68 33.5 99.5t104.5 31.5q142 0 142 -157q0 -116 -36 -206q-28 -71 -81 -127z" />
    <glyph glyph-name="less" unicode="&#x3c;" horiz-adv-x="719" 
d="M630 210l-580 402v181l580 402v-255l-332 -238l332 -237v-255z" />
    <glyph glyph-name="equal" unicode="=" horiz-adv-x="834" 
d="M87 802v207h660v-207h-660zM87 398v207h660v-207h-660z" />
    <glyph glyph-name="greater" unicode="&#x3e;" horiz-adv-x="719" 
d="M90 210v255l332 237l-332 238v255l580 -402v-181z" />
    <glyph glyph-name="question" unicode="?" horiz-adv-x="859" 
d="M315 399l-2 85q-1 133 56 258q23 51 53 102q70 114 96 193q16 49 16 111q0 82 -24.5 121.5t-85.5 39.5q-57 0 -83 -33q-24 -30 -26 -88l-5 -112h-227l-3 86q0 178 70 270q84 108 271 108q171 0 257 -89q93 -98 93 -305q0 -134 -64 -267q-30 -59 -61 -105
q-78 -115 -108 -191q-18 -45 -20 -102l-2 -82h-201zM413 -20q-72 0 -104.5 31.5t-32.5 97.5q0 68 32.5 99.5t104.5 31.5q75 0 108 -31t33 -100q0 -67 -33.5 -98t-107.5 -31z" />
    <glyph glyph-name="at" unicode="@" horiz-adv-x="1241" 
d="M729 -256q-299 0 -455 159q-168 171 -168 530v411q0 378 151 548q132 149 393 149q236 0 354 -152q101 -132 106 -366v-889h-208v90q-45 -108 -151 -108q-153 0 -213 110q-47 85 -47 259v290q0 176 46 261q60 109 213 109q108 0 152 -110q-6 300 -252 300
q-175 0 -255 -119q-79 -118 -79 -373v-410q0 -190 67 -308q55 -98 159 -144q79 -35 187 -35h379v-202h-379zM801 317q59 0 83 54q16 37 18 114v294q-2 73 -18 110q-23 52 -83 52q-63 0 -85 -50q-15 -35 -15 -114v-296q0 -79 14 -112q21 -52 86 -52z" />
    <glyph glyph-name="A" unicode="A" horiz-adv-x="884" 
d="M8 0l260 1522h320l260 -1522h-240l-39 269h-284l-38 -269h-239zM317 486h221l-110 770z" />
    <glyph glyph-name="B" unicode="B" horiz-adv-x="937" 
d="M117 1v1520h362q180 0 271 -91q87 -88 87 -255v-89q0 -121 -33.5 -190.5t-107.5 -90.5q73 -20 115 -90t42 -176v-148q0 -206 -91 -300q-87 -90 -278 -90h-367zM354 903h101q80 0 115 39q32 37 30 122l-1 92q0 69 -29 107q-31 40 -98 40h-118v-400zM354 230h128
q70 0 101 31q34 34 33 126v152q0 65 -33 105q-35 43 -102 43h-127v-457z" />
    <glyph glyph-name="C" unicode="C" horiz-adv-x="891" 
d="M452 -20q-207 0 -296 128q-72 104 -72 300v706q0 197 72 301q88 127 294 127l1 1q205 0 296 -126q72 -101 72 -289v-87h-238v86q0 83 -22 127q-30 59 -107 59t-109 -61q-22 -43 -22 -139v-704q0 -94 21 -137q30 -62 109 -62q75 0 106 56q24 43 24 127v89h238v-90
q0 -186 -73 -286q-90 -125 -293 -125q-1 0 -1 -1z" />
    <glyph glyph-name="D" unicode="D" horiz-adv-x="926" 
d="M117 0v1521h362q204 -1 292 -125q72 -103 72 -300v-672q0 -198 -73 -299q-89 -125 -294 -125h-359zM354 229h128q68 2 96.5 51.5t28.5 144.5v671q0 94 -26 141q-31 53 -99 54h-128v-1062z" />
    <glyph glyph-name="E" unicode="E" horiz-adv-x="826" 
d="M114 0v1521h643v-230h-406v-402h337v-230h-337v-430h406v-229h-643z" />
    <glyph glyph-name="F" unicode="F" horiz-adv-x="814" 
d="M117 0v1521h640v-230h-403v-445h330v-229h-330v-617h-237z" />
    <glyph glyph-name="G" unicode="G" horiz-adv-x="899" 
d="M451 -20q-207 0 -296 128q-72 104 -72 300v706q0 199 73 301q90 127 294 127l1 1q204 0 295 -126q72 -101 72 -289v-87h-237v86q0 84 -22 128q-30 58 -108 58q-77 0 -108 -61q-22 -45 -22 -139v-704q0 -94 21 -137q30 -62 109 -62q75 0 106 56q24 43 24 127v197h-138v227
h375v-425q0 -186 -73 -286q-90 -125 -293 -125q-1 0 -1 -1z" />
    <glyph glyph-name="H" unicode="H" horiz-adv-x="990" 
d="M117 0v1521h238v-639h281v639h237v-1521h-237v652h-281v-652h-238z" />
    <glyph glyph-name="I" unicode="I" horiz-adv-x="473" 
d="M118 0v1521h237v-1521h-237z" />
    <glyph glyph-name="J" unicode="J" horiz-adv-x="666" 
d="M198 -17q-118 0 -190 57l67 203q24 -17 48 -23q30 -8 75 -8q71 0 97 39q25 36 25 129v911h-201v230h437v-1148q0 -192 -71 -283q-83 -107 -287 -107z" />
    <glyph glyph-name="K" unicode="K" horiz-adv-x="934" 
d="M117 0v1521h237v-639h87l223 639h253l-254 -743l274 -778h-253l-236 652h-94v-652h-237z" />
    <glyph glyph-name="L" unicode="L" horiz-adv-x="753" 
d="M117 0v1521h237v-1294h388v-227h-625z" />
    <glyph glyph-name="M" unicode="M" horiz-adv-x="1246" 
d="M118 0v1521h307l200 -924l201 924h306v-1521h-224l14 1118l-194 -928h-205l-196 941l15 -1131h-224z" />
    <glyph glyph-name="N" unicode="N" horiz-adv-x="1032" 
d="M117 0v1521h283l289 -1025v1025h224l3 -1521h-264l-311 1047v-1047h-224z" />
    <glyph glyph-name="O" unicode="O" horiz-adv-x="899" 
d="M449 -20q-206 0 -296 128q-72 102 -72 300v706q0 199 73 301q90 127 295 127v-1q0 1 1 1q208 0 296 -127q71 -103 71 -301v-706q0 -199 -72 -301q-90 -127 -295 -127l-1 1v-1zM453 209q76 1 106 63q21 42 21 137v704q0 96 -20 137q-30 62 -110 62q-4 0 -5 1
q-76 -1 -105 -62q-21 -46 -21 -138v-704q0 -94 21 -137q30 -62 109 -62h2q1 -1 2 -1z" />
    <glyph glyph-name="P" unicode="P" horiz-adv-x="910" 
d="M118 0v1521h349q178 0 269 -81q101 -92 101 -291v-244q0 -209 -100 -301q-88 -80 -275 -80h-107v-524h-237zM355 752h104q77 0 108.5 34.5t31.5 118.5v244q0 72 -30 107t-101 35h-113v-539z" />
    <glyph glyph-name="Q" unicode="Q" horiz-adv-x="899" 
d="M354 -177v165q-153 27 -218 148q-55 101 -55 272v706q0 199 73 301q90 127 295 127v-1q0 1 1 1q208 0 296 -127q71 -103 71 -301v-706q0 -168 -51 -266q-63 -121 -203 -150v-169h-209zM453 209q76 1 106 63q21 42 21 137v704q0 96 -20 137q-30 62 -110 62q-4 0 -5 1
q-76 -1 -105 -62q-21 -46 -21 -138v-704q0 -94 21 -137q30 -62 109 -62h2q1 -1 2 -1z" />
    <glyph glyph-name="R" unicode="R" horiz-adv-x="939" 
d="M118 0v1521h366q192 0 279 -90q90 -96 90 -301v-164q0 -184 -154 -297q60 -42 87 -98q25 -55 36 -176l17 -210q7 -83 57 -185h-246q-13 29 -25 67q-19 61 -24 111l-18 212q-10 106 -54 157q-37 43 -93 41h-81v-588h-237zM355 818h126q67 0 102 43q33 41 33 105v167
q0 92 -34 127q-30 31 -99 31h-128v-473z" />
    <glyph glyph-name="S" unicode="S" horiz-adv-x="876" 
d="M440 -20q-207 0 -293 104q-77 92 -77 294v104h236v-102q0 -91 26 -127q28 -43 105 -43q73 0 105 45q28 39 28 115v12q0 91 -21 140q-25 55 -90 97l-144 93q-144 94 -190 187q-42 83 -42 239v27q0 377 364 377q183 0 270 -94.5t87 -286.5v-120h-237l-1 133q0 64 -28 101
q-30 38 -94 38q-67 0 -97 -44q-29 -40 -27 -113l1 -29q1 -61 29.5 -113.5t81.5 -83.5l129 -76q138 -82 193 -189q49 -94 54 -246v-50q0 -192 -87 -288q-92 -101 -281 -101z" />
    <glyph glyph-name="T" unicode="T" horiz-adv-x="759" 
d="M260 0v1291h-249v230h736v-230h-249v-1291h-238z" />
    <glyph glyph-name="U" unicode="U" horiz-adv-x="931" 
d="M467 -20q-207 0 -294 107q-73 90 -73 283v1151h236v-1148q0 -84 21 -117q29 -47 110 -47t110 47q20 31 20 117v1148h236v-1151q0 -193 -73 -283q-87 -107 -293 -107z" />
    <glyph glyph-name="V" unicode="V" horiz-adv-x="872" 
d="M275 0l-263 1522h239l184 -1261l184 1261h239l-263 -1522h-320z" />
    <glyph glyph-name="W" unicode="W" horiz-adv-x="1341" 
d="M231 0l-197 1522h239l118 -1153l163 1153h230l163 -1152l117 1152h240l-197 -1522h-286l-153 1035l-151 -1035h-286z" />
    <glyph glyph-name="X" unicode="X" horiz-adv-x="904" 
d="M6 0l287 788l-263 733h260l166 -491l163 491h259l-270 -734l291 -787h-264l-188 547l-178 -547h-263z" />
    <glyph glyph-name="Y" unicode="Y" horiz-adv-x="849" 
d="M311 0v556l-307 965h260l168 -638l180 638h234l-298 -965v-556h-237z" />
    <glyph glyph-name="Z" unicode="Z" horiz-adv-x="788" 
d="M55 0v214l411 1077h-393v230h661v-199l-419 -1093h420v-229h-680z" />
    <glyph glyph-name="bracketleft" unicode="[" horiz-adv-x="537" 
d="M97 -105v1729h375v-210h-143v-1308h143v-211h-375z" />
    <glyph glyph-name="backslash" unicode="\" horiz-adv-x="700" 
d="M453 -80l-436 1679h230l436 -1679h-230z" />
    <glyph glyph-name="bracketright" unicode="]" horiz-adv-x="537" 
d="M65 -105v211h144v1308h-144v210h375v-1729h-375z" />
    <glyph glyph-name="asciicircum" unicode="^" horiz-adv-x="1029" 
d="M89 848l251 751h349l251 -751h-242l-168 539h-32l-168 -539h-241z" />
    <glyph glyph-name="underscore" unicode="_" horiz-adv-x="841" 
d="M26 -232v192h790v-192h-790z" />
    <glyph glyph-name="grave" unicode="`" horiz-adv-x="439" 
d="M221 1281l-173 274h207l131 -274h-165z" />
    <glyph glyph-name="a" unicode="a" horiz-adv-x="904" 
d="M383 -20q-170 0 -242 109q-61 92 -61 273q0 175 54 248q66 89 246 89q110 0 187 -27v127q0 97 -18 139q-28 62 -105 62q-72 0 -101 -57q-20 -39 -20 -115v-24h-232v20q0 184 67 279q85 121 284 121q198 0 284 -113q73 -96 73 -280v-831h-231v122q-52 -142 -185 -142z
M438 204q72 0 104 65q25 50 25 133v72q-52 32 -133 32q-76 0 -103 -47q-19 -31 -19 -102q0 -72 24 -107q31 -46 102 -46z" />
    <glyph glyph-name="b" unicode="b" horiz-adv-x="912" 
d="M530 -20q-134 0 -182 137v-117h-232v1568h232v-480q49 136 179 136q178 0 248 -129q54 -99 54 -300v-386q0 -205 -53 -301q-72 -128 -246 -128zM473 206q77 0 105 62q18 40 18 138v393q0 98 -17 138q-27 63 -106 63q-78 0 -105 -75q-19 -49 -19 -153v-340q0 -103 17 -150
q28 -76 107 -76z" />
    <glyph glyph-name="c" unicode="c" 
d="M441 -20q-208 0 -292 128q-67 102 -67 301v422q2 185 74 280q86 113 283 113q205 0 290 -121q66 -94 66 -279v-20h-231v24q0 78 -18 115q-29 57 -107 57t-105 -62q-19 -41 -19 -139v-273v-96q0 -33 2 -95q5 -58 29 -89q30 -40 93 -40q77 0 105 55q20 38 20 117v21h231
v-19q0 -187 -65 -280q-85 -120 -289 -120z" />
    <glyph glyph-name="d" unicode="d" horiz-adv-x="907" 
d="M382 -20q-178 0 -248 128q-54 99 -54 301v385q0 206 54 302q70 127 245 127q129 0 181 -136v481h231v-1568h-231v112q-23 -61 -64 -95q-45 -37 -114 -37zM436 204q73 0 101 65q21 49 23 139v363q0 103 -17 151q-28 76 -107 76q-77 0 -104 -61q-19 -41 -19 -140v-393
q0 -98 17 -137q27 -63 106 -63z" />
    <glyph glyph-name="e" unicode="e" horiz-adv-x="873" 
d="M441 -20q-209 0 -293 128q-67 102 -67 301v385q0 202 67 303q85 127 290 127t290 -122q66 -95 66 -284v-249l-483 -92v-70q0 -95 19 -137q29 -64 108 -64q78 0 106 55q19 38 19 120v25h231v-23q0 -191 -65 -284q-83 -119 -288 -119zM311 679l252 52v90q0 82 -18 121
q-28 58 -107 58t-107 -62q-20 -45 -20 -141v-118z" />
    <glyph glyph-name="f" unicode="f" horiz-adv-x="576" 
d="M131 0v986h-115v217h115v8q0 202 53 289q66 109 235 109q39 0 99 -15q38 -11 81 -30l-42 -192q-59 17 -101 17q-58 0 -75 -40q-17 -38 -17 -138v-8h165v-217h-165v-986h-233z" />
    <glyph glyph-name="g" unicode="g" horiz-adv-x="891" 
d="M479 -407q-191 0 -290 53l15 196q38 -15 104 -21q69 -8 133 -8q61 0 90 41.5t29 136.5v120q-23 -61 -64 -95q-45 -36 -114 -36q-177 0 -247 128q-54 97 -54 301v385q0 206 53 302q70 127 246 127q128 0 180 -133v112h234v-1211q0 -194 -66 -289q-76 -109 -249 -109z
M437 204q67 0 97 57q20 38 26 123v440q-6 81 -27 120q-30 54 -96 54q-78 0 -105 -61q-19 -41 -19 -140v-393q0 -95 18 -137q27 -63 106 -63z" />
    <glyph glyph-name="h" unicode="h" horiz-adv-x="918" 
d="M108 0v1567h232v-482q46 137 180 137q175 0 245 -128q53 -97 53 -300v-794h-232v799q0 97 -17 136q-27 63 -107 63q-74 0 -102 -76q-20 -52 -20 -153v-769h-232z" />
    <glyph glyph-name="i" unicode="i" horiz-adv-x="446" 
d="M222 1346q-70 0 -103 28t-33 88t33 88t103 28q74 0 106.5 -27.5t32.5 -88.5t-32.5 -88.5t-106.5 -27.5zM108 0v1202h232v-1202h-232z" />
    <glyph glyph-name="j" unicode="j" horiz-adv-x="449" 
d="M221 1346q-70 0 -103 28t-33 88t33 88t103 28q74 0 106.5 -27.5t32.5 -88.5t-32.5 -88.5t-106.5 -27.5zM52 -407q-117 0 -207 67l15 195q25 -15 58 -26q44 -16 97 -16q58 0 76 41q16 34 16 137v1211h234v-1211q0 -200 -53 -289q-65 -109 -236 -109z" />
    <glyph glyph-name="k" unicode="k" horiz-adv-x="876" 
d="M106 0v1568h232v-848h86l180 482h236l-242 -601l273 -601h-257l-193 491h-83v-491h-232z" />
    <glyph glyph-name="l" unicode="l" horiz-adv-x="447" 
d="M107 0v1568h232v-1568h-232z" />
    <glyph glyph-name="m" unicode="m" horiz-adv-x="1399" 
d="M108 0v1202h232v-111q84 131 223 131q155 0 213 -136q78 136 247 136q166 0 229 -128q46 -93 46 -300v-794h-232v799q0 101 -14 136q-26 63 -103 63t-108 -75q-22 -54 -22 -153v-290l-1 1v-481h-232v799q0 101 -14 136q-26 63 -103 63q-74 0 -105 -68q-24 -55 -24 -145
v-785h-232z" />
    <glyph glyph-name="n" unicode="n" horiz-adv-x="918" 
d="M108 0v1202h232v-120q26 60 82 99q59 41 128 41q166 0 226 -128q42 -92 42 -300v-794h-232v799q0 99 -15 136q-27 63 -105 63q-76 0 -105 -76q-21 -54 -21 -153v-769h-232z" />
    <glyph glyph-name="o" unicode="o" horiz-adv-x="874" 
d="M440 -20q-208 0 -292 128q-68 101 -68 301v385q0 202 67 303q85 127 290 127t290 -129q66 -100 66 -300v-386q0 -202 -65 -301q-84 -128 -288 -128zM437 206q77 0 105 62q18 40 18 138v393q0 98 -17 138q-27 63 -106 63q-78 0 -105 -62q-19 -41 -19 -139v-394
q0 -97 17 -136q27 -63 107 -63z" />
    <glyph glyph-name="p" unicode="p" horiz-adv-x="904" 
d="M107 -366v1568h232v-113q48 135 179 135q177 0 247 -129q54 -99 54 -300v-386q0 -205 -53 -301q-71 -128 -246 -128q-132 0 -181 136v-482h-232zM463 206q78 0 106 62q18 40 18 138v393q0 95 -18 138q-27 63 -106 63q-77 0 -104 -75q-19 -49 -19 -153v-340
q0 -103 17 -150q28 -76 106 -76z" />
    <glyph glyph-name="q" unicode="q" horiz-adv-x="899" 
d="M562 -366v478q-23 -61 -64 -95q-45 -37 -114 -37q-178 0 -248 128q-54 99 -54 301v385q0 206 54 302q70 127 245 127q129 0 181 -136v115h231v-1568h-231zM438 204q73 0 101 65q21 49 23 139v363q0 103 -17 151q-28 76 -107 76q-77 0 -104 -61q-19 -41 -19 -140v-393
q0 -98 17 -137q27 -63 106 -63z" />
    <glyph glyph-name="r" unicode="r" horiz-adv-x="607" 
d="M108 0v1202h232v-125q49 147 184 147v-1q0 1 1 1q44 0 74 -21l1 -243l-14 6q-26 14 -62 22q-19 4 -46 4h-1q-75 0 -109 -68q-26 -54 -28 -144v-780h-232z" />
    <glyph glyph-name="s" unicode="s" horiz-adv-x="806" 
d="M400 -20q-195 0 -281 111q-74 96 -74 293h233q0 -82 24 -125q29 -53 95 -53q56 0 85 34q25 29 25 81q0 66 -70 123q-29 24 -72 49q-129 78 -165 105q-86 65 -122 153q-20 48 -20 109q0 185 77 270q85 94 270 94q165 0 245 -77q92 -90 92 -307l-233 1q0 70 -19 108
q-26 51 -85 51q-55 0 -86 -36q-26 -30 -26 -77q0 -42 30.5 -75.5t88.5 -70.5q40 -25 110 -66q135 -77 195 -182q34 -58 34 -142q0 -179 -77 -269q-88 -102 -274 -102z" />
    <glyph glyph-name="t" unicode="t" horiz-adv-x="662" 
d="M437 -20q-171 0 -236 109q-53 89 -53 289v608h-125v217h125v386h234v-386h201v-217h-201v-608q0 -103 16 -137q18 -41 76 -41q53 0 97 16q23 7 58 26l15 -195q-90 -67 -207 -67z" />
    <glyph glyph-name="u" unicode="u" horiz-adv-x="921" 
d="M405 -19q-178 0 -248 128q-54 99 -54 300v794h232v-799q0 -96 17 -136q27 -64 107 -64q76 0 105 75q18 49 18 153v770h231v-1202h-231v118q-51 -137 -177 -137z" />
    <glyph glyph-name="v" unicode="v" horiz-adv-x="818" 
d="M248 0l-239 1203h239l161 -979l161 979h239l-239 -1203h-322z" />
    <glyph glyph-name="w" unicode="w" horiz-adv-x="1354" 
d="M194 0l-179 1203h239l123 -979h9l123 979h339l123 -979h9l123 979h239l-179 -1203h-361l-123 972l-123 -972h-362z" />
    <glyph glyph-name="x" unicode="x" horiz-adv-x="801" 
d="M6 0l250 625l-236 577h244l141 -373l150 373h226l-236 -577l251 -625h-243l-158 407l-162 -407h-227z" />
    <glyph glyph-name="y" unicode="y" horiz-adv-x="807" 
d="M289 -452l-102 164q67 33 107 84q50 64 71 178l4 26h-147l-213 1203h240l153 -999h2l17 96l139 903h239q-42 -241 -73 -413t-73 -413l-70 -400q-29 -166 -109 -279q-77 -106 -185 -150z" />
    <glyph glyph-name="z" unicode="z" horiz-adv-x="758" 
d="M43 0v198l396 788h-368v216h626v-197l-394 -783h394v-222h-654z" />
    <glyph glyph-name="braceleft" unicode="{" horiz-adv-x="582" 
d="M469 -105q-133 0 -211 64q-102 82 -101 272v191q0 127 -23 171q-28 49 -110 55v223q82 6 109 56q24 44 24 171v191q-4 188 100 272q77 63 212 63h62v-210h-34q-69 0 -90 -42q-15 -31 -17 -125l-4 -272q-2 -102 -34 -153t-100 -62q69 -11 100.5 -61t33.5 -154l4 -291
q2 -84 20 -111q22 -37 87 -37h34v-211h-62z" />
    <glyph glyph-name="bar" unicode="|" horiz-adv-x="825" 
d="M118 -82v1685h237v-1685h-237z" />
    <glyph glyph-name="braceright" unicode="}" horiz-adv-x="583" 
d="M51 -105v211h35q63 0 87 37q17 28 19 111l4 291q2 104 33.5 154t100.5 61q-67 11 -99.5 62.5t-34.5 152.5l-4 272q-2 97 -16 125q-21 42 -90 42h-35v210h62q135 0 212 -63q102 -84 101 -272l-1 -191q0 -129 24 -171q26 -50 109 -56v-223q-82 -6 -109 -55
q-24 -43 -24 -171l1 -191q1 -190 -101 -272q-78 -64 -212 -64h-62z" />
    <glyph glyph-name="asciitilde" unicode="~" horiz-adv-x="834" 
d="M584 557q-67 0 -167 47t-143 47q-97 0 -140 -58l-44 155q59 108 197 108q62 0 166 -47t147 -47q95 0 138 58l45 -155q-65 -108 -199 -108z" />
    <glyph glyph-name="exclamdown" unicode="&#xa1;" horiz-adv-x="499" 
d="M212 974q-75 0 -108 31t-33 100q0 67 33.5 98t107.5 31q72 0 104.5 -31.5t32.5 -97.5q0 -68 -32.5 -99.5t-104.5 -31.5zM76 -307l32 1122h201l35 -1122h-268z" />
    <glyph glyph-name="cent" unicode="&#xa2;" horiz-adv-x="896" 
d="M343 -167v156q-149 28 -211 149q-50 96 -50 271v422q0 159 55 253q65 108 206 132v161h207v-164q138 -29 198 -143q47 -90 47 -246v-20h-231v24q0 78 -18 115q-29 57 -107 57t-105 -62q-19 -41 -19 -139v-273v-96q0 -33 2 -95q5 -58 29 -89q30 -40 93 -40q77 0 105 55
q20 38 20 117v21h231v-19q0 -161 -46 -249q-59 -113 -199 -141v-157h-207z" />
    <glyph glyph-name="sterling" unicode="&#xa3;" horiz-adv-x="852" 
d="M617 -15q-51 0 -179 12t-184 12q-32 0 -122 -9q-12 -2 -36 -4.5t-35 -3.5v224q89 27 135 100q38 62 38 154q0 38 -4 69h-164v213h117q-15 49 -35 112q-44 131 -60 228q-10 54 -10 116q0 160 77 247q90 101 281 101q188 0 270 -117q74 -108 74 -331v-30q0 -21 -1 -32
l-232 -2q-3 20 -3 49q-2 76 -10 124q-11 68 -47 97q-19 16 -51 16q-64 0 -92.5 -42.5t-28.5 -130.5q0 -72 36 -189q15 -51 33 -105q22 -65 35 -111h256v-213h-213q3 -31 3 -64q0 -78 -33 -154q-34 -77 -73 -102q19 3 40 3t96 -7q32 -4 47 -5q22 -3 41 -3q46 0 74 7
q38 10 71 35l78 -193q-71 -71 -189 -71z" />
    <glyph glyph-name="currency" unicode="&#xa4;" horiz-adv-x="798" 
d="M588 368l-81 83q-51 -22 -107 -22q-57 0 -105 21l-81 -81l-146 146l81 80q-21 52 -21 105q0 56 22 107l-82 83l146 146l85 -85q49 20 101 20q55 0 103 -21l85 86l147 -146l-85 -86q21 -52 21 -104q0 -51 -20 -102l84 -83zM400 599q42 0 72 30q29 29 29 71q0 41 -29 72
q-28 30 -72 30q-43 0 -73 -30t-30 -72q0 -43 30 -71q32 -30 73 -30z" />
    <glyph glyph-name="yen" unicode="&#xa5;" horiz-adv-x="853" 
d="M315 0v287h-217v138h217v110h-217v138h180l-270 848h259l168 -638l180 638h234l-262 -848h186v-138h-222v-110h222v-138h-222v-287h-236z" />
    <glyph glyph-name="brokenbar" unicode="&#xa6;" horiz-adv-x="825" 
d="M118 823v780h237v-780h-237zM118 -82v791h237v-791h-237z" />
    <glyph glyph-name="section" unicode="&#xa7;" horiz-adv-x="850" 
d="M416 -251q-166 0 -245 78q-92 90 -92 306l233 -2q0 -68 19 -106q26 -52 85 -52q55 0 86 36q25 29 25 76q0 60 -71 114q-31 22 -74 48q-101 59 -167 108q-88 64 -125 157q-20 49 -20 110q0 224 173 287q-77 54 -113 112q-48 73 -48 164q0 185 77 270q85 94 270 94
q167 0 245 -77q92 -90 92 -307l-233 2q0 71 -18 107q-27 51 -86 51q-54 0 -85 -36q-26 -30 -26 -76q0 -42 30.5 -75.5t88.5 -70.5q45 -29 110 -66q134 -76 194 -182q34 -59 34 -143q0 -226 -175 -288q76 -54 114 -111q48 -74 48 -165q0 -183 -76 -269q-83 -94 -270 -94z
M422 531q55 0 82 32.5t27 83.5q0 60 -59 112q-24 8 -49 8q-54 0 -83 -34q-27 -31 -27 -81q0 -61 58 -112q21 -9 51 -9z" />
    <glyph glyph-name="dieresis" unicode="&#xa8;" horiz-adv-x="484" 
d="M92 1305q-57 0 -82.5 27.5t-25.5 85.5q0 60 25.5 87.5t82.5 27.5q59 0 85 -27t26 -88q0 -59 -26 -86t-85 -27zM356 1305q-56 0 -82 27.5t-26 85.5q0 60 26 87.5t82 27.5q60 0 86 -27.5t26 -87.5q0 -58 -26.5 -85.5t-85.5 -27.5z" />
    <glyph glyph-name="copyright" unicode="&#xa9;" horiz-adv-x="1484" 
d="M743 -215q-315 0 -475 150q-180 167 -180 541v408q0 368 180 535q159 148 474 148q312 0 475 -150q180 -169 180 -539v-407q0 -247 -83 -407q-76 -146 -227 -215q-138 -64 -344 -64zM743 -32q235 0 346 120t111 378v416q0 261 -112 382q-111 120 -347 120
q-235 -1 -346.5 -121t-111.5 -374v-417q0 -262 112 -383q111 -121 348 -121zM745 102q-187 0 -264 119q-60 90 -60 276v386q2 170 67 257q77 103 255 103q186 0 262 -112q58 -86 58 -255v-18h-202v22q0 76 -17 110q-27 54 -101 54q-75 0 -100 -59q-18 -41 -18 -135v-250v-89
q0 -30 2 -86q5 -56 27 -85q28 -38 89 -38q73 0 99 53q19 37 19 112v19h202v-18q0 -171 -57 -255q-75 -111 -261 -111z" />
    <glyph glyph-name="ordfeminine" unicode="&#xaa;" horiz-adv-x="756" 
d="M321 756q-145 0 -198 82q-46 69 -46 237v123q0 179 43 254q52 90 201 90q93 0 133 -109v88h204v-745h-204v92q-42 -112 -133 -112zM367 943q42 0 63 26q22 28 22 96v139q0 82 -19 116.5t-66 34.5q-49 0 -68 -34.5t-19 -115.5v-111q0 -80 19.5 -115.5t67.5 -35.5zM119 510
v184h531v-184h-531z" />
    <glyph glyph-name="guillemotleft" unicode="&#xab;" horiz-adv-x="892" 
d="M215 189l-175 402l175 404h233l-184 -404l184 -402h-233zM617 189l-175 402l175 404h233l-184 -404l184 -402h-233z" />
    <glyph glyph-name="logicalnot" unicode="&#xac;" horiz-adv-x="834" 
d="M540 373v227h-453v207h660v-434h-207z" />
    <glyph glyph-name="uni00AD" unicode="&#xad;" horiz-adv-x="694" 
d="M85 -113v207h547v-207h-547z" />
    <glyph glyph-name="registered" unicode="&#xae;" horiz-adv-x="1484" 
d="M743 -215q-315 0 -475 150q-180 167 -180 541v408q0 368 180 535q159 148 474 148q312 0 475 -150q180 -169 180 -539v-407q0 -247 -83 -407q-76 -146 -227 -215q-138 -64 -344 -64zM743 -32q235 0 346 120t111 378v416q0 260 -112 381t-346 121q-235 0 -347 -120
t-112 -375v-417q0 -262 112 -383q111 -121 348 -121zM428 127v1105h313q168 0 247 -79.5t79 -246.5v-47q0 -165 -138 -266q61 -40 84 -82q29 -54 30 -153l4 -231h-203l-7 222q-4 98 -44 140q-31 30 -87 35h-72v-397h-206zM634 723h104q122 0 124 136v50q0 65 -30.5 94.5
t-92.5 29.5h-105v-310z" />
    <glyph glyph-name="macron" unicode="&#xaf;" horiz-adv-x="477" 
d="M3 1344v176h474v-176h-474z" />
    <glyph glyph-name="degree" unicode="&#xb0;" horiz-adv-x="489" 
d="M242 1080q-100 0 -162 67q-60 65 -60 162q0 96 60 164q62 70 162 70q103 0 166 -70q60 -66 60 -164q0 -99 -60 -162q-64 -67 -166 -67zM242 1208q43 0 66.5 28.5t23.5 72.5q0 46 -23 73t-67 27q-40 0 -63 -27.5t-23 -72.5q0 -43 23.5 -72t62.5 -29z" />
    <glyph glyph-name="plusminus" unicode="&#xb1;" horiz-adv-x="834" 
d="M315 543v227h-228v207h228v226h206v-226h226v-207h-226v-227h-206zM87 231v207h660v-207h-660z" />
    <glyph glyph-name="uni00B2" unicode="&#xb2;" horiz-adv-x="694" 
d="M72 846v193q20 89 112 188q39 42 82 82q100 93 139 153q23 38 23 74q0 51 -17 79q-19 32 -60 32q-42 0 -60 -36q-14 -28 -14 -78v-30h-203v51q0 138 66 211q70 78 215 78q275 0 275 -306q0 -108 -75 -207q-30 -40 -72 -80q-101 -97 -135 -140q-26 -34 -34 -70h308v-194
h-550z" />
    <glyph glyph-name="uni00B3" unicode="&#xb3;" horiz-adv-x="692" 
d="M347 824q-136 0 -204 65q-78 75 -78 231v31h201v-28q0 -48 15 -74q21 -36 66 -36q40 0 60.5 21.5t20.5 74.5v28q0 70 -25 101q-23 26 -70 26l-64 1v160l72 2q80 2 80 107v5q0 58 -12 83q-17 34 -62 34q-72 0 -72 -100v-38l-202 -2v20q0 155 65.5 230.5t210.5 75.5
q140 0 205 -72.5t65 -222.5q0 -180 -111 -199q57 -12 85 -58q35 -57 35 -174q0 -155 -74 -226q-69 -66 -207 -66z" />
    <glyph glyph-name="acute" unicode="&#xb4;" horiz-adv-x="529" 
d="M91 1281l131 274h221l-180 -274h-172z" />
    <glyph glyph-name="uni00B5" unicode="&#xb5;" horiz-adv-x="922" 
d="M119 -365v1567h232v-770q0 -101 20 -153q27 -75 103 -75q79 0 106 63q17 39 17 136v799h233v-794q0 -203 -53 -300q-71 -128 -246 -128q-132 0 -180 137v-482h-232z" />
    <glyph glyph-name="paragraph" unicode="&#xb6;" horiz-adv-x="1120" 
d="M481 -369v981q-417 10 -417 447q0 236 98 347q101 115 319 115h210v-1890h-210zM817 -369v1890h209v-1890h-209z" />
    <glyph glyph-name="periodcentered" unicode="&#xb7;" horiz-adv-x="435" 
d="M214 459q-71 0 -104.5 31.5t-33.5 97.5q0 68 33.5 99.5t104.5 31.5q75 0 108 -31t33 -100q0 -67 -33.5 -98t-107.5 -31z" />
    <glyph glyph-name="cedilla" unicode="&#xb8;" horiz-adv-x="620" 
d="M282 -410q-127 0 -200 75l37 86q32 -23 65 -34q37 -14 92 -14q40 0 64.5 16t24.5 48q0 26 -32 41q-28 12 -68 12q-30 0 -56 -8v224h119v-110l17 3q15 4 42 4q67 0 110 -46q40 -45 40 -110q0 -90 -71 -140q-66 -47 -184 -47z" />
    <glyph glyph-name="uni00B9" unicode="&#xb9;" horiz-adv-x="467" 
d="M173 846v731q-41 -56 -133 -79v186q111 62 169 137h168v-975h-204z" />
    <glyph glyph-name="ordmasculine" unicode="&#xba;" horiz-adv-x="707" 
d="M355 755q-156 0 -222 81q-58 71 -58 238v121q0 178 53 254q61 90 227 90q164 0 225 -90q51 -75 51 -254v-93q0 -181 -51 -256q-61 -91 -225 -91zM355 941q42 0 58 27q17 27 17 97v137q0 86 -13 116q-16 36 -62 36q-49 0 -65 -35q-12 -27 -12 -116v-109q0 -88 14 -116
q16 -37 63 -37zM88 510v184h532v-184h-532z" />
    <glyph glyph-name="guillemotright" unicode="&#xbb;" horiz-adv-x="877" 
d="M41 188l184 402l-184 404h233l175 -404l-175 -402h-233zM444 188l184 402l-184 404h233l175 -404l-175 -402h-233z" />
    <glyph glyph-name="onehalf" unicode="&#xbd;" horiz-adv-x="1545" 
d="M180 846v731q-41 -56 -133 -79v186q111 62 169 137h168v-975h-204zM537 231l-202 39l463 1548l197 -38zM905 300v193q20 89 112 188q39 42 82 82q100 93 139 153q23 38 23 74q0 51 -17 79q-19 32 -60 32q-42 0 -60 -36q-14 -28 -14 -78v-30h-203v51q0 138 66 211
q70 78 215 78q275 0 275 -306q0 -108 -75 -207q-30 -40 -72 -80q-101 -97 -135 -140q-26 -34 -34 -70h308v-194h-550z" />
    <glyph glyph-name="questiondown" unicode="&#xbf;" horiz-adv-x="874" 
d="M458 967q-75 0 -108 31t-33 100q0 67 33.5 98t107.5 31q72 0 104.5 -31.5t32.5 -97.5q0 -68 -32.5 -99.5t-104.5 -31.5zM450 -333q-171 0 -256 89q-94 97 -94 305q0 135 65 267q27 56 60 105q78 115 108 192q18 44 20 101l2 82h201l2 -85q1 -131 -55 -258
q-27 -56 -54 -101q-69 -113 -95 -194q-17 -53 -17 -111q0 -82 24.5 -121.5t85.5 -39.5q56 0 84 34q23 29 25 87l5 112h227l3 -86q0 -179 -70 -269q-83 -109 -271 -109z" />
    <glyph glyph-name="Agrave" unicode="&#xc0;" horiz-adv-x="884" 
d="M351 1601l-173 274h207l131 -274h-165zM8 0l260 1522h320l260 -1522h-240l-39 269h-284l-38 -269h-239zM317 486h221l-110 770z" />
    <glyph glyph-name="Aacute" unicode="&#xc1;" horiz-adv-x="884" 
d="M345 1601l131 274h221l-180 -274h-172zM8 0l260 1522h320l260 -1522h-240l-39 269h-284l-38 -269h-239zM317 486h221l-110 770z" />
    <glyph glyph-name="Acircumflex" unicode="&#xc2;" horiz-adv-x="884" 
d="M184 1601l138 241h221l138 -241h-190l-59 120l-57 -120h-191zM8 0l260 1522h320l260 -1522h-240l-39 269h-284l-38 -269h-239zM317 486h221l-110 770z" />
    <glyph glyph-name="Atilde" unicode="&#xc3;" horiz-adv-x="884" 
d="M243 1622l-116 41q26 94 72 145q52 59 134 59q48 0 114 -33l45 -22q22 -11 44 -11q58 0 86 69l117 -38q-25 -98 -69 -146q-54 -60 -136 -60q-46 0 -110 33q-66 33 -90 33q-61 0 -91 -70zM8 0l260 1522h320l260 -1522h-240l-39 269h-284l-38 -269h-239zM317 486h221
l-110 770z" />
    <glyph glyph-name="Adieresis" unicode="&#xc4;" horiz-adv-x="884" 
d="M300 1625q-57 0 -82.5 27.5t-25.5 85.5q0 60 25.5 87.5t82.5 27.5q59 0 85 -27t26 -88q0 -59 -26 -86t-85 -27zM564 1625q-56 0 -82 27.5t-26 85.5q0 60 26 87.5t82 27.5q60 0 86 -27.5t26 -87.5q0 -58 -26.5 -85.5t-85.5 -27.5zM8 0l260 1522h320l260 -1522h-240
l-39 269h-284l-38 -269h-239zM317 486h221l-110 770z" />
    <glyph glyph-name="Aring" unicode="&#xc5;" horiz-adv-x="884" 
d="M431 1594q-107 0 -158 48.5t-51 147.5q0 103 50.5 151.5t158.5 48.5q113 0 163 -48.5t50 -151.5q0 -100 -50.5 -148t-162.5 -48zM432 1733q34 0 48 14.5t14 43.5q0 30 -14 44.5t-48 14.5q-60 0 -60 -59q0 -58 60 -58zM8 0l260 1522h320l260 -1522h-240l-39 269h-284
l-38 -269h-239zM317 486h221l-110 770z" />
    <glyph glyph-name="AE" unicode="&#xc6;" horiz-adv-x="1103" 
d="M-31 0l393 1521h695v-230h-316v-402h247v-230h-247v-430h316v-229h-553v269h-235l-63 -269h-237zM320 486h184v776z" />
    <glyph glyph-name="Ccedilla" unicode="&#xc7;" horiz-adv-x="891" 
d="M448 -410q-127 0 -200 75l37 86q32 -23 65 -34q37 -14 92 -14q40 0 64.5 16t24.5 48q0 26 -32 41q-29 12 -68 12q-30 0 -56 -8v173q-164 22 -233 145q-58 100 -58 278v706q0 197 72 301q88 127 294 127l1 1q205 0 296 -126q72 -101 72 -289v-87h-238v86q0 83 -22 127
q-30 59 -107 59t-109 -61q-22 -43 -22 -139v-704q0 -94 21 -137q30 -62 109 -62q75 0 106 56q24 43 24 127v89h238v-90q0 -175 -65 -275q-81 -123 -260 -134v-57l17 3q15 4 42 4q67 0 110 -46q40 -45 40 -110q0 -90 -71 -140q-66 -47 -184 -47z" />
    <glyph glyph-name="Egrave" unicode="&#xc8;" horiz-adv-x="826" 
d="M355 1601l-173 274h207l131 -274h-165zM114 0v1521h643v-230h-406v-402h337v-230h-337v-430h406v-229h-643z" />
    <glyph glyph-name="Eacute" unicode="&#xc9;" horiz-adv-x="826" 
d="M337 1601l131 274h221l-180 -274h-172zM114 0v1521h643v-230h-406v-402h337v-230h-337v-430h406v-229h-643z" />
    <glyph glyph-name="Ecircumflex" unicode="&#xca;" horiz-adv-x="826" 
d="M177 1601l138 241h221l138 -241h-190l-59 120l-57 -120h-191zM114 0v1521h643v-230h-406v-402h337v-230h-337v-430h406v-229h-643z" />
    <glyph glyph-name="Edieresis" unicode="&#xcb;" horiz-adv-x="826" 
d="M294 1625q-57 0 -82.5 27.5t-25.5 85.5q0 60 25.5 87.5t82.5 27.5q59 0 85 -27t26 -88q0 -59 -26 -86t-85 -27zM558 1625q-56 0 -82 27.5t-26 85.5q0 60 26 87.5t82 27.5q60 0 86 -27.5t26 -87.5q0 -58 -26.5 -85.5t-85.5 -27.5zM114 0v1521h643v-230h-406v-402h337v-230
h-337v-430h406v-229h-643z" />
    <glyph glyph-name="Igrave" unicode="&#xcc;" horiz-adv-x="473" 
d="M147 1601l-173 274h207l131 -274h-165zM118 0v1521h237v-1521h-237z" />
    <glyph glyph-name="Iacute" unicode="&#xcd;" horiz-adv-x="473" 
d="M141 1601l131 274h221l-180 -274h-172zM118 0v1521h237v-1521h-237z" />
    <glyph glyph-name="Icircumflex" unicode="&#xce;" horiz-adv-x="473" 
d="M-17 1601l138 241h221l138 -241h-190l-59 120l-57 -120h-191zM118 0v1521h237v-1521h-237z" />
    <glyph glyph-name="Idieresis" unicode="&#xcf;" horiz-adv-x="473" 
d="M98 1625q-57 0 -82.5 27.5t-25.5 85.5q0 60 25.5 87.5t82.5 27.5q59 0 85 -27t26 -88q0 -59 -26 -86t-85 -27zM362 1625q-56 0 -82 27.5t-26 85.5q0 60 26 87.5t82 27.5q60 0 86 -27.5t26 -87.5q0 -58 -26.5 -85.5t-85.5 -27.5zM118 0v1521h237v-1521h-237z" />
    <glyph glyph-name="Eth" unicode="&#xd0;" horiz-adv-x="927" 
d="M101 0v600h-89v207h89v714h362q204 -1 292 -125q72 -103 72 -300v-672q0 -198 -73 -299q-89 -125 -294 -125h-359zM338 229h128q68 2 96.5 51.5t28.5 144.5v671q0 94 -26 141q-31 53 -99 54h-128v-484h120v-207h-120v-371z" />
    <glyph glyph-name="Ntilde" unicode="&#xd1;" horiz-adv-x="1034" 
d="M333 1622l-116 41q26 94 72 145q52 59 134 59q48 0 114 -33l45 -22q22 -11 44 -11q58 0 86 69l117 -38q-25 -98 -69 -146q-54 -60 -136 -60q-46 0 -110 33q-66 33 -90 33q-61 0 -91 -70zM117 0v1521h297l271 -976l-8 976h237l3 -1521h-277l-294 1000l9 -1000h-238z" />
    <glyph glyph-name="Ograve" unicode="&#xd2;" horiz-adv-x="899" 
d="M372 1601l-173 274h207l131 -274h-165zM449 -20q-206 0 -296 128q-72 102 -72 300v706q0 199 73 301q90 127 295 127v-1q0 1 1 1q208 0 296 -127q71 -103 71 -301v-706q0 -199 -72 -301q-90 -127 -295 -127l-1 1v-1zM453 209q76 1 106 63q21 42 21 137v704q0 96 -20 137
q-30 62 -110 62q-4 0 -5 1q-76 -1 -105 -62q-21 -46 -21 -138v-704q0 -94 21 -137q30 -62 109 -62h2q1 -1 2 -1z" />
    <glyph glyph-name="Oacute" unicode="&#xd3;" horiz-adv-x="899" 
d="M354 1601l131 274h221l-180 -274h-172zM449 -20q-206 0 -296 128q-72 102 -72 300v706q0 199 73 301q90 127 295 127v-1q0 1 1 1q208 0 296 -127q71 -103 71 -301v-706q0 -199 -72 -301q-90 -127 -295 -127l-1 1v-1zM453 209q76 1 106 63q21 42 21 137v704q0 96 -20 137
q-30 62 -110 62q-4 0 -5 1q-76 -1 -105 -62q-21 -46 -21 -138v-704q0 -94 21 -137q30 -62 109 -62h2q1 -1 2 -1z" />
    <glyph glyph-name="Ocircumflex" unicode="&#xd4;" horiz-adv-x="899" 
d="M200 1601l138 241h221l138 -241h-190l-59 120l-57 -120h-191zM449 -20q-206 0 -296 128q-72 102 -72 300v706q0 199 73 301q90 127 295 127v-1q0 1 1 1q208 0 296 -127q71 -103 71 -301v-706q0 -199 -72 -301q-90 -127 -295 -127l-1 1v-1zM453 209q76 1 106 63
q21 42 21 137v704q0 96 -20 137q-30 62 -110 62q-4 0 -5 1q-76 -1 -105 -62q-21 -46 -21 -138v-704q0 -94 21 -137q30 -62 109 -62h2q1 -1 2 -1z" />
    <glyph glyph-name="Otilde" unicode="&#xd5;" horiz-adv-x="899" 
d="M258 1622l-116 41q26 94 72 145q52 59 134 59q48 0 114 -33l45 -22q22 -11 44 -11q58 0 86 69l117 -38q-25 -98 -69 -146q-54 -60 -136 -60q-46 0 -110 33q-66 33 -90 33q-61 0 -91 -70zM449 -20q-206 0 -296 128q-72 102 -72 300v706q0 199 73 301q90 127 295 127v-1
q0 1 1 1q208 0 296 -127q71 -103 71 -301v-706q0 -199 -72 -301q-90 -127 -295 -127l-1 1v-1zM453 209q76 1 106 63q21 42 21 137v704q0 96 -20 137q-30 62 -110 62q-4 0 -5 1q-76 -1 -105 -62q-21 -46 -21 -138v-704q0 -94 21 -137q30 -62 109 -62h2q1 -1 2 -1z" />
    <glyph glyph-name="Odieresis" unicode="&#xd6;" horiz-adv-x="899" 
d="M315 1625q-57 0 -82.5 27.5t-25.5 85.5q0 60 25.5 87.5t82.5 27.5q59 0 85 -27t26 -88q0 -59 -26 -86t-85 -27zM579 1625q-56 0 -82 27.5t-26 85.5q0 60 26 87.5t82 27.5q60 0 86 -27.5t26 -87.5q0 -58 -26.5 -85.5t-85.5 -27.5zM449 -20q-206 0 -296 128
q-72 102 -72 300v706q0 199 73 301q90 127 295 127v-1q0 1 1 1q208 0 296 -127q71 -103 71 -301v-706q0 -199 -72 -301q-90 -127 -295 -127l-1 1v-1zM453 209q76 1 106 63q21 42 21 137v704q0 96 -20 137q-30 62 -110 62q-4 0 -5 1q-76 -1 -105 -62q-21 -46 -21 -138v-704
q0 -94 21 -137q30 -62 109 -62h2q1 -1 2 -1z" />
    <glyph glyph-name="multiply" unicode="&#xd7;" horiz-adv-x="835" 
d="M243 382l-146 146l174 174l-174 174l147 146l174 -173l173 173l146 -146l-173 -173l174 -174l-146 -146l-175 173z" />
    <glyph glyph-name="Oslash" unicode="&#xd8;" horiz-adv-x="899" 
d="M334 -119l-219 39l46 176q-80 105 -80 312v706q0 199 73 301q90 127 295 127v-1q0 1 1 1q39 0 86 -7l32 119l213 -55l-45 -172q81 -103 81 -313v-706q0 -199 -72 -301q-90 -127 -295 -127l-1 1v-1q-41 0 -88 7zM453 209q76 1 106 63q21 42 21 137v704q0 96 -20 137
q-30 62 -110 62q-4 0 -5 1q-76 -1 -105 -62q-21 -46 -21 -138v-704q0 -94 21 -137q30 -62 109 -62h2q1 -1 2 -1z" />
    <glyph glyph-name="Ugrave" unicode="&#xd9;" horiz-adv-x="931" 
d="M385 1601l-173 274h207l131 -274h-165zM467 -20q-207 0 -294 107q-73 90 -73 283v1151h236v-1148q0 -84 21 -117q29 -47 110 -47t110 47q20 31 20 117v1148h236v-1151q0 -193 -73 -283q-87 -107 -293 -107z" />
    <glyph glyph-name="Uacute" unicode="&#xda;" horiz-adv-x="931" 
d="M379 1601l131 274h221l-180 -274h-172zM467 -20q-207 0 -294 107q-73 90 -73 283v1151h236v-1148q0 -84 21 -117q29 -47 110 -47t110 47q20 31 20 117v1148h236v-1151q0 -193 -73 -283q-87 -107 -293 -107z" />
    <glyph glyph-name="Ucircumflex" unicode="&#xdb;" horiz-adv-x="931" 
d="M218 1601l138 241h221l138 -241h-190l-59 120l-57 -120h-191zM467 -20q-207 0 -294 107q-73 90 -73 283v1151h236v-1148q0 -84 21 -117q29 -47 110 -47t110 47q20 31 20 117v1148h236v-1151q0 -193 -73 -283q-87 -107 -293 -107z" />
    <glyph glyph-name="Udieresis" unicode="&#xdc;" horiz-adv-x="931" 
d="M332 1625q-57 0 -82.5 27.5t-25.5 85.5q0 60 25.5 87.5t82.5 27.5q59 0 85 -27t26 -88q0 -59 -26 -86t-85 -27zM596 1625q-56 0 -82 27.5t-26 85.5q0 60 26 87.5t82 27.5q60 0 86 -27.5t26 -87.5q0 -58 -26.5 -85.5t-85.5 -27.5zM467 -20q-207 0 -294 107q-73 90 -73 283
v1151h236v-1148q0 -84 21 -117q29 -47 110 -47t110 47q20 31 20 117v1148h236v-1151q0 -193 -73 -283q-87 -107 -293 -107z" />
    <glyph glyph-name="Yacute" unicode="&#xdd;" horiz-adv-x="849" 
d="M351 1601l131 274h221l-180 -274h-172zM311 0v556l-307 965h260l168 -638l180 638h234l-298 -965v-556h-237z" />
    <glyph glyph-name="Thorn" unicode="&#xde;" horiz-adv-x="927" 
d="M107 0v1521h237v-294h112q178 0 268 -82q101 -93 101 -291v-207q0 -209 -100 -300q-90 -80 -274 -80h-107v-267h-237zM344 495h104q77 0 108 34t31 118v207q0 74 -29.5 108.5t-100.5 34.5h-113v-502z" />
    <glyph glyph-name="germandbls" unicode="&#xdf;" horiz-adv-x="887" 
d="M446 -2v222q76 0 110 64q23 46 23 139v128q0 90 -22 131q-31 57 -111 57h-31v222h39q68 1 96 51q20 35 20 94v59q0 59 -21 99q-30 56 -103 56q-78 0 -107 -62q-22 -46 -22 -141v-1116l-236 -1v1111q0 196 72 303q87 128 293 128q201 0 288 -121q68 -94 68 -262v-49
q0 -189 -138 -262q149 -81 149 -301v-117q0 -200 -72 -303q-89 -129 -295 -129z" />
    <glyph glyph-name="agrave" unicode="&#xe0;" horiz-adv-x="904" 
d="M366 1281l-173 274h207l131 -274h-165zM383 -20q-170 0 -242 109q-61 92 -61 273q0 175 54 248q66 89 246 89q110 0 187 -27v127q0 97 -18 139q-28 62 -105 62q-72 0 -101 -57q-20 -39 -20 -115v-24h-232v20q0 184 67 279q85 121 284 121q198 0 284 -113q73 -96 73 -280
v-831h-231v122q-52 -142 -185 -142zM438 204q72 0 104 65q25 50 25 133v72q-52 32 -133 32q-76 0 -103 -47q-19 -31 -19 -102q0 -72 24 -107q31 -46 102 -46z" />
    <glyph glyph-name="aacute" unicode="&#xe1;" horiz-adv-x="904" 
d="M355 1281l131 274h221l-180 -274h-172zM383 -20q-170 0 -242 109q-61 92 -61 273q0 175 54 248q66 89 246 89q110 0 187 -27v127q0 97 -18 139q-28 62 -105 62q-72 0 -101 -57q-20 -39 -20 -115v-24h-232v20q0 184 67 279q85 121 284 121q198 0 284 -113q73 -96 73 -280
v-831h-231v122q-52 -142 -185 -142zM438 204q72 0 104 65q25 50 25 133v72q-52 32 -133 32q-76 0 -103 -47q-19 -31 -19 -102q0 -72 24 -107q31 -46 102 -46z" />
    <glyph glyph-name="acircumflex" unicode="&#xe2;" horiz-adv-x="904" 
d="M208 1281l138 241h221l138 -241h-190l-59 120l-57 -120h-191zM383 -20q-170 0 -242 109q-61 92 -61 273q0 175 54 248q66 89 246 89q110 0 187 -27v127q0 97 -18 139q-28 62 -105 62q-72 0 -101 -57q-20 -39 -20 -115v-24h-232v20q0 184 67 279q85 121 284 121
q198 0 284 -113q73 -96 73 -280v-831h-231v122q-52 -142 -185 -142zM438 204q72 0 104 65q25 50 25 133v72q-52 32 -133 32q-76 0 -103 -47q-19 -31 -19 -102q0 -72 24 -107q31 -46 102 -46z" />
    <glyph glyph-name="atilde" unicode="&#xe3;" horiz-adv-x="904" 
d="M267 1302l-116 41q26 94 72 145q52 59 134 59q48 0 114 -33l45 -22q22 -11 44 -11q58 0 86 69l117 -38q-25 -98 -69 -146q-54 -60 -136 -60q-46 0 -110 33q-66 33 -90 33q-61 0 -91 -70zM383 -20q-170 0 -242 109q-61 92 -61 273q0 175 54 248q66 89 246 89
q110 0 187 -27v127q0 97 -18 139q-28 62 -105 62q-72 0 -101 -57q-20 -39 -20 -115v-24h-232v20q0 184 67 279q85 121 284 121q198 0 284 -113q73 -96 73 -280v-831h-231v122q-52 -142 -185 -142zM438 204q72 0 104 65q25 50 25 133v72q-52 32 -133 32q-76 0 -103 -47
q-19 -31 -19 -102q0 -72 24 -107q31 -46 102 -46z" />
    <glyph glyph-name="adieresis" unicode="&#xe4;" horiz-adv-x="904" 
d="M323 1305q-57 0 -82.5 27.5t-25.5 85.5q0 60 25.5 87.5t82.5 27.5q59 0 85 -27t26 -88q0 -59 -26 -86t-85 -27zM587 1305q-56 0 -82 27.5t-26 85.5q0 60 26 87.5t82 27.5q60 0 86 -27.5t26 -87.5q0 -58 -26.5 -85.5t-85.5 -27.5zM383 -20q-170 0 -242 109q-61 92 -61 273
q0 175 54 248q66 89 246 89q110 0 187 -27v127q0 97 -18 139q-28 62 -105 62q-72 0 -101 -57q-20 -39 -20 -115v-24h-232v20q0 184 67 279q85 121 284 121q198 0 284 -113q73 -96 73 -280v-831h-231v122q-52 -142 -185 -142zM438 204q72 0 104 65q25 50 25 133v72
q-52 32 -133 32q-76 0 -103 -47q-19 -31 -19 -102q0 -72 24 -107q31 -46 102 -46z" />
    <glyph glyph-name="aring" unicode="&#xe5;" horiz-adv-x="904" 
d="M455 1274q-107 0 -158 48.5t-51 147.5q0 103 50.5 151.5t158.5 48.5q113 0 163 -48.5t50 -151.5q0 -100 -50.5 -148t-162.5 -48zM456 1413q34 0 48 14.5t14 43.5q0 30 -14 44.5t-48 14.5q-60 0 -60 -59q0 -58 60 -58zM383 -20q-170 0 -242 109q-61 92 -61 273
q0 175 54 248q66 89 246 89q110 0 187 -27v127q0 97 -18 139q-28 62 -105 62q-72 0 -101 -57q-20 -39 -20 -115v-24h-232v20q0 184 67 279q85 121 284 121q198 0 284 -113q73 -96 73 -280v-831h-231v122q-52 -142 -185 -142zM438 204q72 0 104 65q25 50 25 133v72
q-52 32 -133 32q-76 0 -103 -47q-19 -31 -19 -102q0 -72 24 -107q31 -46 102 -46z" />
    <glyph glyph-name="ae" unicode="&#xe6;" horiz-adv-x="1388" 
d="M417 -20q-184 0 -264 109q-68 92 -68 273q0 175 54 248q66 89 247 89q109 0 186 -27v127q0 97 -18 139q-28 62 -105 62q-72 0 -100 -57q-20 -39 -20 -115v-24h-232v20q0 184 67 279q83 121 283 121q164 0 242 -81q76 81 240 81q205 0 290 -122q66 -95 66 -284v-249
l-483 -92v-70q0 -95 19 -137q29 -64 108 -64q78 0 106 55q19 38 19 120v25h231v-23q0 -191 -65 -284q-85 -119 -289 -119q-179 0 -256 98q-103 -98 -258 -98zM802 679l252 52v90q0 82 -18 121q-28 58 -107 58t-107 -62q-20 -45 -20 -141v-118zM448 204q70 0 104 65
q24 48 24 133v72q-52 32 -132 32q-76 0 -103 -47q-19 -31 -19 -102q0 -70 24 -107q30 -46 102 -46z" />
    <glyph glyph-name="ccedilla" unicode="&#xe7;" 
d="M439 -410q-127 0 -200 75l37 86q32 -23 65 -34q37 -14 92 -14q40 0 64.5 16t24.5 48q0 26 -32 41q-28 12 -68 12q-30 0 -56 -8v173q-164 22 -230 145q-54 99 -54 279v422q2 185 74 280q86 113 283 113q205 0 290 -121q66 -94 66 -279v-20h-231v24q0 78 -18 115
q-29 57 -107 57t-105 -62q-19 -41 -19 -139v-273v-96q0 -33 2 -95q5 -58 29 -89q30 -40 93 -40q77 0 105 55q20 38 20 117v21h231v-19q0 -175 -58 -268q-73 -118 -252 -130v-56l17 3q15 4 42 4q67 0 110 -46q40 -45 40 -110q0 -90 -71 -140q-66 -47 -184 -47z" />
    <glyph glyph-name="egrave" unicode="&#xe8;" horiz-adv-x="873" 
d="M366 1281l-173 274h207l131 -274h-165zM441 -20q-209 0 -293 128q-67 102 -67 301v385q0 202 67 303q85 127 290 127t290 -122q66 -95 66 -284v-249l-483 -92v-70q0 -95 19 -137q29 -64 108 -64q78 0 106 55q19 38 19 120v25h231v-23q0 -191 -65 -284q-83 -119 -288 -119
zM311 679l252 52v90q0 82 -18 121q-28 58 -107 58t-107 -62q-20 -45 -20 -141v-118z" />
    <glyph glyph-name="eacute" unicode="&#xe9;" horiz-adv-x="873" 
d="M344 1281l131 274h221l-180 -274h-172zM441 -20q-209 0 -293 128q-67 102 -67 301v385q0 202 67 303q85 127 290 127t290 -122q66 -95 66 -284v-249l-483 -92v-70q0 -95 19 -137q29 -64 108 -64q78 0 106 55q19 38 19 120v25h231v-23q0 -191 -65 -284q-83 -119 -288 -119
zM311 679l252 52v90q0 82 -18 121q-28 58 -107 58t-107 -62q-20 -45 -20 -141v-118z" />
    <glyph glyph-name="ecircumflex" unicode="&#xea;" horiz-adv-x="873" 
d="M188 1281l138 241h221l138 -241h-190l-59 120l-57 -120h-191zM441 -20q-209 0 -293 128q-67 102 -67 301v385q0 202 67 303q85 127 290 127t290 -122q66 -95 66 -284v-249l-483 -92v-70q0 -95 19 -137q29 -64 108 -64q78 0 106 55q19 38 19 120v25h231v-23
q0 -191 -65 -284q-83 -119 -288 -119zM311 679l252 52v90q0 82 -18 121q-28 58 -107 58t-107 -62q-20 -45 -20 -141v-118z" />
    <glyph glyph-name="edieresis" unicode="&#xeb;" horiz-adv-x="873" 
d="M304 1305q-57 0 -82.5 27.5t-25.5 85.5q0 60 25.5 87.5t82.5 27.5q59 0 85 -27t26 -88q0 -59 -26 -86t-85 -27zM568 1305q-56 0 -82 27.5t-26 85.5q0 60 26 87.5t82 27.5q60 0 86 -27.5t26 -87.5q0 -58 -26.5 -85.5t-85.5 -27.5zM441 -20q-209 0 -293 128
q-67 102 -67 301v385q0 202 67 303q85 127 290 127t290 -122q66 -95 66 -284v-249l-483 -92v-70q0 -95 19 -137q29 -64 108 -64q78 0 106 55q19 38 19 120v25h231v-23q0 -191 -65 -284q-83 -119 -288 -119zM311 679l252 52v90q0 82 -18 121q-28 58 -107 58t-107 -62
q-20 -45 -20 -141v-118z" />
    <glyph glyph-name="igrave" unicode="&#xec;" horiz-adv-x="446" 
d="M141 1281l-173 274h207l131 -274h-165zM108 0v1202h232v-1202h-232z" />
    <glyph glyph-name="iacute" unicode="&#xed;" horiz-adv-x="446" 
d="M136 1281l131 274h221l-180 -274h-172zM108 0v1202h232v-1202h-232z" />
    <glyph glyph-name="icircumflex" unicode="&#xee;" horiz-adv-x="446" 
d="M-25 1281l138 241h221l138 -241h-190l-59 120l-57 -120h-191zM108 0v1202h232v-1202h-232z" />
    <glyph glyph-name="idieresis" unicode="&#xef;" horiz-adv-x="446" 
d="M90 1305q-57 0 -82.5 27.5t-25.5 85.5q0 60 25.5 87.5t82.5 27.5q59 0 85 -27t26 -88q0 -59 -26 -86t-85 -27zM354 1305q-56 0 -82 27.5t-26 85.5q0 60 26 87.5t82 27.5q60 0 86 -27.5t26 -87.5q0 -58 -26.5 -85.5t-85.5 -27.5zM108 0v1202h232v-1202h-232z" />
    <glyph glyph-name="eth" unicode="&#xf0;" horiz-adv-x="901" 
d="M453 -20q-208 0 -293 129q-66 100 -66 301v339q0 205 50 299q65 124 242 124q139 0 190 -140q-23 174 -101 265l-62 -76l-94 70l63 77q-39 17 -69 20l-46 5l102 191q87 -13 153 -45l58 70l93 -70l-54 -67q82 -75 130 -202q57 -150 57 -366v-503q0 -200 -66 -298
q-84 -123 -287 -123zM450 206q77 0 105 62q18 43 18 152v306q0 103 -17 151q-28 76 -106 76q-77 0 -104 -62q-19 -41 -19 -139v-347q0 -97 17 -136q27 -63 106 -63z" />
    <glyph glyph-name="ntilde" unicode="&#xf1;" horiz-adv-x="918" 
d="M282 1302l-116 41q26 94 72 145q52 59 134 59q48 0 114 -33l45 -22q22 -11 44 -11q58 0 86 69l117 -38q-25 -98 -69 -146q-54 -60 -136 -60q-46 0 -110 33q-66 33 -90 33q-61 0 -91 -70zM108 0v1202h232v-120q26 60 82 99q59 41 128 41q166 0 226 -128q42 -92 42 -300
v-794h-232v799q0 99 -15 136q-27 63 -105 63q-76 0 -105 -76q-21 -54 -21 -153v-769h-232z" />
    <glyph glyph-name="ograve" unicode="&#xf2;" horiz-adv-x="874" 
d="M353 1281l-173 274h207l131 -274h-165zM440 -20q-208 0 -292 128q-68 101 -68 301v385q0 202 67 303q85 127 290 127t290 -129q66 -100 66 -300v-386q0 -202 -65 -301q-84 -128 -288 -128zM437 206q77 0 105 62q18 40 18 138v393q0 98 -17 138q-27 63 -106 63
q-78 0 -105 -62q-19 -41 -19 -139v-394q0 -97 17 -136q27 -63 107 -63z" />
    <glyph glyph-name="oacute" unicode="&#xf3;" horiz-adv-x="874" 
d="M344 1281l131 274h221l-180 -274h-172zM440 -20q-208 0 -292 128q-68 101 -68 301v385q0 202 67 303q85 127 290 127t290 -129q66 -100 66 -300v-386q0 -202 -65 -301q-84 -128 -288 -128zM437 206q77 0 105 62q18 40 18 138v393q0 98 -17 138q-27 63 -106 63
q-78 0 -105 -62q-19 -41 -19 -139v-394q0 -97 17 -136q27 -63 107 -63z" />
    <glyph glyph-name="ocircumflex" unicode="&#xf4;" horiz-adv-x="874" 
d="M182 1281l138 241h221l138 -241h-190l-59 120l-57 -120h-191zM440 -20q-208 0 -292 128q-68 101 -68 301v385q0 202 67 303q85 127 290 127t290 -129q66 -100 66 -300v-386q0 -202 -65 -301q-84 -128 -288 -128zM437 206q77 0 105 62q18 40 18 138v393q0 98 -17 138
q-27 63 -106 63q-78 0 -105 -62q-19 -41 -19 -139v-394q0 -97 17 -136q27 -63 107 -63z" />
    <glyph glyph-name="otilde" unicode="&#xf5;" horiz-adv-x="874" 
d="M240 1302l-116 41q26 94 72 145q52 59 134 59q48 0 114 -33l45 -22q22 -11 44 -11q58 0 86 69l117 -38q-25 -98 -69 -146q-54 -60 -136 -60q-46 0 -110 33q-66 33 -90 33q-61 0 -91 -70zM440 -20q-208 0 -292 128q-68 101 -68 301v385q0 202 67 303q85 127 290 127
t290 -129q66 -100 66 -300v-386q0 -202 -65 -301q-84 -128 -288 -128zM437 206q77 0 105 62q18 40 18 138v393q0 98 -17 138q-27 63 -106 63q-78 0 -105 -62q-19 -41 -19 -139v-394q0 -97 17 -136q27 -63 107 -63z" />
    <glyph glyph-name="odieresis" unicode="&#xf6;" horiz-adv-x="874" 
d="M293 1305q-57 0 -82.5 27.5t-25.5 85.5q0 60 25.5 87.5t82.5 27.5q59 0 85 -27t26 -88q0 -59 -26 -86t-85 -27zM557 1305q-56 0 -82 27.5t-26 85.5q0 60 26 87.5t82 27.5q60 0 86 -27.5t26 -87.5q0 -58 -26.5 -85.5t-85.5 -27.5zM440 -20q-208 0 -292 128
q-68 101 -68 301v385q0 202 67 303q85 127 290 127t290 -129q66 -100 66 -300v-386q0 -202 -65 -301q-84 -128 -288 -128zM437 206q77 0 105 62q18 40 18 138v393q0 98 -17 138q-27 63 -106 63q-78 0 -105 -62q-19 -41 -19 -139v-394q0 -97 17 -136q27 -63 107 -63z" />
    <glyph glyph-name="divide" unicode="&#xf7;" horiz-adv-x="834" 
d="M415 886q-71 0 -104.5 31.5t-33.5 97.5q0 68 33.5 99.5t104.5 31.5q75 0 108 -31t33 -100q0 -67 -33.5 -98t-107.5 -31zM87 600v207h660v-207h-660zM415 259q-71 0 -104.5 31.5t-33.5 97.5q0 68 33.5 99.5t104.5 31.5q75 0 108 -31t33 -100q0 -67 -33.5 -98t-107.5 -31z
" />
    <glyph glyph-name="oslash" unicode="&#xf8;" horiz-adv-x="874" 
d="M181 -94l-172 3l114 244q-43 95 -43 256v385q0 202 67 303q85 127 290 127q97 0 171 -30l57 122l170 -3l-104 -224q62 -102 62 -294v-386q0 -202 -65 -301q-84 -128 -288 -128q-122 0 -204 45zM313 561l195 419q-28 20 -71 20q-78 0 -105 -62q-19 -41 -19 -139v-238z
M437 206q77 0 105 62q18 40 18 138v315l-220 -472q30 -43 97 -43z" />
    <glyph glyph-name="ugrave" unicode="&#xf9;" horiz-adv-x="921" 
d="M378 1281l-173 274h207l131 -274h-165zM405 -19q-178 0 -248 128q-54 99 -54 300v794h232v-799q0 -96 17 -136q27 -64 107 -64q76 0 105 75q18 49 18 153v770h231v-1202h-231v118q-51 -137 -177 -137z" />
    <glyph glyph-name="uacute" unicode="&#xfa;" horiz-adv-x="921" 
d="M368 1281l131 274h221l-180 -274h-172zM405 -19q-178 0 -248 128q-54 99 -54 300v794h232v-799q0 -96 17 -136q27 -64 107 -64q76 0 105 75q18 49 18 153v770h231v-1202h-231v118q-51 -137 -177 -137z" />
    <glyph glyph-name="ucircumflex" unicode="&#xfb;" horiz-adv-x="921" 
d="M207 1281l138 241h221l138 -241h-190l-59 120l-57 -120h-191zM405 -19q-178 0 -248 128q-54 99 -54 300v794h232v-799q0 -96 17 -136q27 -64 107 -64q76 0 105 75q18 49 18 153v770h231v-1202h-231v118q-51 -137 -177 -137z" />
    <glyph glyph-name="udieresis" unicode="&#xfc;" horiz-adv-x="921" 
d="M322 1305q-57 0 -82.5 27.5t-25.5 85.5q0 60 25.5 87.5t82.5 27.5q59 0 85 -27t26 -88q0 -59 -26 -86t-85 -27zM586 1305q-56 0 -82 27.5t-26 85.5q0 60 26 87.5t82 27.5q60 0 86 -27.5t26 -87.5q0 -58 -26.5 -85.5t-85.5 -27.5zM405 -19q-178 0 -248 128q-54 99 -54 300
v794h232v-799q0 -96 17 -136q27 -64 107 -64q76 0 105 75q18 49 18 153v770h231v-1202h-231v118q-51 -137 -177 -137z" />
    <glyph glyph-name="yacute" unicode="&#xfd;" horiz-adv-x="807" 
d="M316 1281l131 274h221l-180 -274h-172zM289 -452l-102 164q67 33 107 84q50 64 71 178l4 26h-147l-213 1203h240l153 -999h2l17 96l139 903h239q-42 -241 -73 -413t-73 -413l-70 -400q-29 -166 -109 -279q-77 -106 -185 -150z" />
    <glyph glyph-name="thorn" unicode="&#xfe;" horiz-adv-x="927" 
d="M108 -366v1887h232v-431q49 134 178 134q178 0 248 -129q54 -99 54 -300v-386q0 -205 -53 -301q-71 -128 -246 -128q-132 0 -181 136v-482h-232zM464 206q77 0 105 62q18 40 18 138v393q0 98 -17 138q-27 63 -106 63q-72 0 -101 -66q-21 -49 -23 -139v-363
q0 -100 18 -150q28 -76 106 -76z" />
    <glyph glyph-name="ydieresis" unicode="&#xff;" horiz-adv-x="807" 
d="M282 1305q-57 0 -82.5 27.5t-25.5 85.5q0 60 25.5 87.5t82.5 27.5q59 0 85 -27t26 -88q0 -59 -26 -86t-85 -27zM546 1305q-56 0 -82 27.5t-26 85.5q0 60 26 87.5t82 27.5q60 0 86 -27.5t26 -87.5q0 -58 -26.5 -85.5t-85.5 -27.5zM289 -452l-102 164q67 33 107 84
q50 64 71 178l4 26h-147l-213 1203h240l153 -999h2l17 96l139 903h239q-42 -241 -73 -413t-73 -413l-70 -400q-29 -166 -109 -279q-77 -106 -185 -150z" />
    <glyph glyph-name="Amacron" unicode="&#x100;" horiz-adv-x="884" 
d="M197 1664v176h474v-176h-474zM8 0l260 1522h320l260 -1522h-240l-39 269h-284l-38 -269h-239zM317 486h221l-110 770z" />
    <glyph glyph-name="amacron" unicode="&#x101;" horiz-adv-x="904" 
d="M220 1344v176h474v-176h-474zM383 -20q-170 0 -242 109q-61 92 -61 273q0 175 54 248q66 89 246 89q110 0 187 -27v127q0 97 -18 139q-28 62 -105 62q-72 0 -101 -57q-20 -39 -20 -115v-24h-232v20q0 184 67 279q85 121 284 121q198 0 284 -113q73 -96 73 -280v-831h-231
v122q-52 -142 -185 -142zM438 204q72 0 104 65q25 50 25 133v72q-52 32 -133 32q-76 0 -103 -47q-19 -31 -19 -102q0 -72 24 -107q31 -46 102 -46z" />
    <glyph glyph-name="Abreve" unicode="&#x102;" horiz-adv-x="884" 
d="M433 1601q-147 0 -216 79q-62 68 -64 188h134q7 -69 30 -96q32 -38 116 -38q80 0 113 36q24 28 31 98h134q-2 -120 -65 -189q-72 -78 -213 -78zM8 0l260 1522h320l260 -1522h-240l-39 269h-284l-38 -269h-239zM317 486h221l-110 770z" />
    <glyph glyph-name="abreve" unicode="&#x103;" horiz-adv-x="904" 
d="M455 1281q-147 0 -216 79q-62 68 -64 188h134q7 -69 30 -96q32 -38 116 -38q80 0 113 36q24 28 31 98h134q-2 -120 -65 -189q-72 -78 -213 -78zM383 -20q-170 0 -242 109q-61 92 -61 273q0 175 54 248q66 89 246 89q110 0 187 -27v127q0 97 -18 139q-28 62 -105 62
q-72 0 -101 -57q-20 -39 -20 -115v-24h-232v20q0 184 67 279q85 121 284 121q198 0 284 -113q73 -96 73 -280v-831h-231v122q-52 -142 -185 -142zM438 204q72 0 104 65q25 50 25 133v72q-52 32 -133 32q-76 0 -103 -47q-19 -31 -19 -102q0 -72 24 -107q31 -46 102 -46z" />
    <glyph glyph-name="Aogonek" unicode="&#x104;" horiz-adv-x="884" 
d="M754 -437q-103 0 -164 51q-72 59 -72 172q0 76 43 130q34 43 108 84h-61l-39 269h-284l-38 -269h-239l260 1522h320l259 -1518l9 -4q-72 -45 -99 -85q-32 -47 -32 -109q0 -87 75 -87q32 0 51 6q18 5 38 18l14 -131q-46 -49 -149 -49zM317 486h221l-110 770z" />
    <glyph glyph-name="aogonek" unicode="&#x105;" horiz-adv-x="904" 
d="M696 -437q-103 0 -164 51q-72 59 -72 172q0 76 43 130q34 43 108 84h-43v122q-52 -142 -185 -142q-170 0 -242 109q-61 92 -61 273q0 175 54 248q66 89 246 89q110 0 187 -27v127q0 97 -18 139q-28 62 -105 62q-72 0 -101 -57q-20 -39 -20 -115v-24h-232v20q0 184 67 279
q85 121 284 121q198 0 284 -113q73 -96 73 -280v-831h-1q-72 -45 -99 -85q-32 -47 -32 -109q0 -87 75 -87q32 0 51 6q17 5 38 18l14 -131q-46 -49 -149 -49zM438 204q72 0 104 65q25 50 25 133v72q-52 32 -133 32q-76 0 -103 -47q-19 -31 -19 -102q0 -72 24 -107
q31 -46 102 -46z" />
    <glyph glyph-name="Cacute" unicode="&#x106;" horiz-adv-x="891" 
d="M352 1601l131 274h221l-180 -274h-172zM452 -20q-207 0 -296 128q-72 104 -72 300v706q0 197 72 301q88 127 294 127l1 1q205 0 296 -126q72 -101 72 -289v-87h-238v86q0 83 -22 127q-30 59 -107 59t-109 -61q-22 -43 -22 -139v-704q0 -94 21 -137q30 -62 109 -62
q75 0 106 56q24 43 24 127v89h238v-90q0 -186 -73 -286q-90 -125 -293 -125q-1 0 -1 -1z" />
    <glyph glyph-name="cacute" unicode="&#x107;" 
d="M350 1303l131 274h221l-180 -274h-172zM441 -20q-208 0 -292 128q-67 102 -67 301v422q2 185 74 280q86 113 283 113q205 0 290 -121q66 -94 66 -279v-20h-231v24q0 78 -18 115q-29 57 -107 57t-105 -62q-19 -41 -19 -139v-273v-96q0 -33 2 -95q5 -58 29 -89
q30 -40 93 -40q77 0 105 55q20 38 20 117v21h231v-19q0 -187 -65 -280q-85 -120 -289 -120z" />
    <glyph glyph-name="Ccircumflex" unicode="&#x108;" horiz-adv-x="891" 
d="M194 1601l138 241h221l138 -241h-190l-59 120l-57 -120h-191zM452 -20q-207 0 -296 128q-72 104 -72 300v706q0 197 72 301q88 127 294 127l1 1q205 0 296 -126q72 -101 72 -289v-87h-238v86q0 83 -22 127q-30 59 -107 59t-109 -61q-22 -43 -22 -139v-704q0 -94 21 -137
q30 -62 109 -62q75 0 106 56q24 43 24 127v89h238v-90q0 -186 -73 -286q-90 -125 -293 -125q-1 0 -1 -1z" />
    <glyph glyph-name="ccircumflex" unicode="&#x109;" 
d="M189 1281l138 241h221l138 -241h-190l-59 120l-57 -120h-191zM441 -20q-208 0 -292 128q-67 102 -67 301v422q2 185 74 280q86 113 283 113q205 0 290 -121q66 -94 66 -279v-20h-231v24q0 78 -18 115q-29 57 -107 57t-105 -62q-19 -41 -19 -139v-273v-96q0 -33 2 -95
q5 -58 29 -89q30 -40 93 -40q77 0 105 55q20 38 20 117v21h231v-19q0 -187 -65 -280q-85 -120 -289 -120z" />
    <glyph glyph-name="Cdotaccent" unicode="&#x10a;" horiz-adv-x="891" 
d="M442 1599q-72 0 -105 31.5t-33 97.5q0 68 33 99.5t105 31.5q75 0 108 -31t33 -100q0 -67 -33.5 -98t-107.5 -31zM452 -20q-207 0 -296 128q-72 104 -72 300v706q0 197 72 301q88 127 294 127l1 1q205 0 296 -126q72 -101 72 -289v-87h-238v86q0 83 -22 127
q-30 59 -107 59t-109 -61q-22 -43 -22 -139v-704q0 -94 21 -137q30 -62 109 -62q75 0 106 56q24 43 24 127v89h238v-90q0 -186 -73 -286q-90 -125 -293 -125q-1 0 -1 -1z" />
    <glyph glyph-name="cdotaccent" unicode="&#x10b;" 
d="M437 1279q-72 0 -105 31.5t-33 97.5q0 68 33 99.5t105 31.5q75 0 108 -31t33 -100q0 -67 -33.5 -98t-107.5 -31zM441 -20q-208 0 -292 128q-67 102 -67 301v422q2 185 74 280q86 113 283 113q205 0 290 -121q66 -94 66 -279v-20h-231v24q0 78 -18 115q-29 57 -107 57
t-105 -62q-19 -41 -19 -139v-273v-96q0 -33 2 -95q5 -58 29 -89q30 -40 93 -40q77 0 105 55q20 38 20 117v21h231v-19q0 -187 -65 -280q-85 -120 -289 -120z" />
    <glyph glyph-name="Ccaron" unicode="&#x10c;" horiz-adv-x="891" 
d="M333 1601l-138 241h190l58 -120l58 120h190l-138 -241h-220zM452 -20q-207 0 -296 128q-72 104 -72 300v706q0 197 72 301q88 127 294 127l1 1q205 0 296 -126q72 -101 72 -289v-87h-238v86q0 83 -22 127q-30 59 -107 59t-109 -61q-22 -43 -22 -139v-704q0 -94 21 -137
q30 -62 109 -62q75 0 106 56q24 43 24 127v89h238v-90q0 -186 -73 -286q-90 -125 -293 -125q-1 0 -1 -1z" />
    <glyph glyph-name="ccaron" unicode="&#x10d;" 
d="M327 1281l-138 241h190l58 -120l58 120h190l-138 -241h-220zM441 -20q-208 0 -292 128q-67 102 -67 301v422q2 185 74 280q86 113 283 113q205 0 290 -121q66 -94 66 -279v-20h-231v24q0 78 -18 115q-29 57 -107 57t-105 -62q-19 -41 -19 -139v-273v-96q0 -33 2 -95
q5 -58 29 -89q30 -40 93 -40q77 0 105 55q20 38 20 117v21h231v-19q0 -187 -65 -280q-85 -120 -289 -120z" />
    <glyph glyph-name="Dcaron" unicode="&#x10e;" horiz-adv-x="926" 
d="M324 1601l-138 241h190l58 -120l58 120h190l-138 -241h-220zM117 0v1521h362q204 -1 292 -125q72 -103 72 -300v-672q0 -198 -73 -299q-89 -125 -294 -125h-359zM354 229h128q68 2 96.5 51.5t28.5 144.5v671q0 94 -26 141q-31 53 -99 54h-128v-1062z" />
    <glyph glyph-name="dcaron" unicode="&#x10f;" horiz-adv-x="907" 
d="M382 -20q-178 0 -248 128q-54 99 -54 301v385q0 206 54 302q70 127 245 127q129 0 181 -136v481h231v-1568h-231v112q-23 -61 -64 -95q-45 -37 -114 -37zM889 1261l-24 307h208l-26 -307h-158zM436 204q73 0 101 65q21 49 23 139v363q0 103 -17 151q-28 76 -107 76
q-77 0 -104 -61q-19 -41 -19 -140v-393q0 -98 17 -137q27 -63 106 -63z" />
    <glyph glyph-name="Dcroat" unicode="&#x110;" horiz-adv-x="927" 
d="M101 0v651h-126v176h126v694h362q204 -1 292 -125q72 -103 72 -300v-672q0 -198 -73 -299q-89 -125 -294 -125h-359zM338 229h128q68 2 96.5 51.5t28.5 144.5v671q0 94 -26 141q-31 53 -99 54h-128v-464h111v-176h-111v-422z" />
    <glyph glyph-name="dcroat" unicode="&#x111;" horiz-adv-x="907" 
d="M382 -20q-178 0 -248 128q-54 99 -54 301v385q0 206 54 302q70 127 245 127q129 0 181 -136v193h-112v207h112v81h231v-81h91v-207h-91v-1280h-231v112q-23 -61 -64 -95q-45 -37 -114 -37zM436 204q73 0 101 65q21 49 23 139v363q0 103 -17 151q-28 76 -107 76
q-77 0 -104 -61q-19 -41 -19 -140v-393q0 -98 17 -137q27 -63 106 -63z" />
    <glyph glyph-name="Emacron" unicode="&#x112;" horiz-adv-x="826" 
d="M189 1664v176h474v-176h-474zM114 0v1521h643v-230h-406v-402h337v-230h-337v-430h406v-229h-643z" />
    <glyph glyph-name="emacron" unicode="&#x113;" horiz-adv-x="873" 
d="M200 1344v176h474v-176h-474zM441 -20q-209 0 -293 128q-67 102 -67 301v385q0 202 67 303q85 127 290 127t290 -122q66 -95 66 -284v-249l-483 -92v-70q0 -95 19 -137q29 -64 108 -64q78 0 106 55q19 38 19 120v25h231v-23q0 -191 -65 -284q-83 -119 -288 -119zM311 679
l252 52v90q0 82 -18 121q-28 58 -107 58t-107 -62q-20 -45 -20 -141v-118z" />
    <glyph glyph-name="Ebreve" unicode="&#x114;" horiz-adv-x="826" 
d="M427 1601q-147 0 -216 79q-62 68 -64 188h134q7 -69 30 -96q32 -38 116 -38q80 0 113 36q24 28 31 98h134q-2 -120 -65 -189q-72 -78 -213 -78zM114 0v1521h643v-230h-406v-402h337v-230h-337v-430h406v-229h-643z" />
    <glyph glyph-name="ebreve" unicode="&#x115;" horiz-adv-x="873" 
d="M435 1281q-147 0 -216 79q-62 68 -64 188h134q7 -69 30 -96q32 -38 116 -38q80 0 113 36q24 28 31 98h134q-2 -120 -65 -189q-72 -78 -213 -78zM441 -20q-209 0 -293 128q-67 102 -67 301v385q0 202 67 303q85 127 290 127t290 -122q66 -95 66 -284v-249l-483 -92v-70
q0 -95 19 -137q29 -64 108 -64q78 0 106 55q19 38 19 120v25h231v-23q0 -191 -65 -284q-83 -119 -288 -119zM311 679l252 52v90q0 82 -18 121q-28 58 -107 58t-107 -62q-20 -45 -20 -141v-118z" />
    <glyph glyph-name="Edotaccent" unicode="&#x116;" horiz-adv-x="826" 
d="M431 1599q-72 0 -105 31.5t-33 97.5q0 68 33 99.5t105 31.5q75 0 108 -31t33 -100q0 -67 -33.5 -98t-107.5 -31zM114 0v1521h643v-230h-406v-402h337v-230h-337v-430h406v-229h-643z" />
    <glyph glyph-name="edotaccent" unicode="&#x117;" horiz-adv-x="873" 
d="M436 1279q-72 0 -105 31.5t-33 97.5q0 68 33 99.5t105 31.5q75 0 108 -31t33 -100q0 -67 -33.5 -98t-107.5 -31zM441 -20q-209 0 -293 128q-67 102 -67 301v385q0 202 67 303q85 127 290 127t290 -122q66 -95 66 -284v-249l-483 -92v-70q0 -95 19 -137q29 -64 108 -64
q78 0 106 55q19 38 19 120v25h231v-23q0 -191 -65 -284q-83 -119 -288 -119zM311 679l252 52v90q0 82 -18 121q-28 58 -107 58t-107 -62q-20 -45 -20 -141v-118z" />
    <glyph glyph-name="Eogonek" unicode="&#x118;" horiz-adv-x="826" 
d="M656 -437q-103 0 -164 51q-72 59 -72 172q0 76 43 130q34 43 108 84h-457v1521h643v-230h-406v-402h337v-230h-337v-430h406v-229h1q-72 -45 -99 -85q-32 -47 -32 -109q0 -87 75 -87q32 0 51 6q17 5 38 18l14 -131q-46 -49 -149 -49z" />
    <glyph glyph-name="eogonek" unicode="&#x119;" horiz-adv-x="873" 
d="M586 -385q-103 0 -164 51q-72 59 -72 172q0 85 55 143q-186 11 -263 137q-61 98 -61 291v385q0 202 67 303q85 127 290 127t290 -122q66 -95 66 -284v-249l-483 -92v-70q0 -95 19 -137q29 -64 108 -64q78 0 106 55q19 38 19 120v25h231v-23q0 -111 -22 -188
q-26 -92 -86 -142l2 -1l-11 -7l-12 -9q-3 -2 -7 -5t-7 -4q-50 -36 -72 -75t-22 -94q0 -87 75 -87q32 0 51 6q17 5 38 18l14 -131q-46 -49 -149 -49zM311 679l252 52v90q0 82 -18 121q-28 58 -107 58t-107 -62q-20 -45 -20 -141v-118z" />
    <glyph glyph-name="Ecaron" unicode="&#x11a;" horiz-adv-x="826" 
d="M316 1601l-138 241h190l58 -120l58 120h190l-138 -241h-220zM114 0v1521h643v-230h-406v-402h337v-230h-337v-430h406v-229h-643z" />
    <glyph glyph-name="ecaron" unicode="&#x11b;" horiz-adv-x="873" 
d="M327 1281l-138 241h190l58 -120l58 120h190l-138 -241h-220zM441 -20q-209 0 -293 128q-67 102 -67 301v385q0 202 67 303q85 127 290 127t290 -122q66 -95 66 -284v-249l-483 -92v-70q0 -95 19 -137q29 -64 108 -64q78 0 106 55q19 38 19 120v25h231v-23
q0 -191 -65 -284q-83 -119 -288 -119zM311 679l252 52v90q0 82 -18 121q-28 58 -107 58t-107 -62q-20 -45 -20 -141v-118z" />
    <glyph glyph-name="Gcircumflex" unicode="&#x11c;" horiz-adv-x="899" 
d="M202 1601l138 241h221l138 -241h-190l-59 120l-57 -120h-191zM451 -20q-207 0 -296 128q-72 104 -72 300v706q0 199 73 301q90 127 294 127l1 1q204 0 295 -126q72 -101 72 -289v-87h-237v86q0 84 -22 128q-30 58 -108 58q-77 0 -108 -61q-22 -45 -22 -139v-704
q0 -94 21 -137q30 -62 109 -62q75 0 106 56q24 43 24 127v197h-138v227h375v-425q0 -186 -73 -286q-90 -125 -293 -125q-1 0 -1 -1z" />
    <glyph glyph-name="gcircumflex" unicode="&#x11d;" horiz-adv-x="891" 
d="M200 1281l138 241h221l138 -241h-190l-59 120l-57 -120h-191zM479 -407q-191 0 -290 53l15 196q38 -15 104 -21q69 -8 133 -8q61 0 90 41.5t29 136.5v120q-23 -61 -64 -95q-45 -36 -114 -36q-177 0 -247 128q-54 97 -54 301v385q0 206 53 302q70 127 246 127
q128 0 180 -133v112h234v-1211q0 -194 -66 -289q-76 -109 -249 -109zM437 204q67 0 97 57q20 38 26 123v440q-6 81 -27 120q-30 54 -96 54q-78 0 -105 -61q-19 -41 -19 -140v-393q0 -95 18 -137q27 -63 106 -63z" />
    <glyph glyph-name="Gbreve" unicode="&#x11e;" horiz-adv-x="899" 
d="M452 1601q-147 0 -216 79q-62 68 -64 188h134q7 -69 30 -96q32 -38 116 -38q80 0 113 36q24 28 31 98h134q-2 -120 -65 -189q-71 -78 -213 -78zM451 -20q-207 0 -296 128q-72 104 -72 300v706q0 199 73 301q90 127 294 127l1 1q204 0 295 -126q72 -101 72 -289v-87h-237
v86q0 84 -22 128q-30 58 -108 58q-77 0 -108 -61q-22 -45 -22 -139v-704q0 -94 21 -137q30 -62 109 -62q75 0 106 56q24 43 24 127v197h-138v227h375v-425q0 -186 -73 -286q-90 -125 -293 -125q-1 0 -1 -1z" />
    <glyph glyph-name="gbreve" unicode="&#x11f;" horiz-adv-x="891" 
d="M453 1281q-147 0 -216 79q-62 68 -64 188h134q7 -69 30 -96q32 -38 116 -38q80 0 113 36q24 28 31 98h134q-2 -120 -65 -189q-72 -78 -213 -78zM479 -407q-191 0 -290 53l15 196q38 -15 104 -21q69 -8 133 -8q61 0 90 41.5t29 136.5v120q-23 -61 -64 -95
q-45 -36 -114 -36q-177 0 -247 128q-54 97 -54 301v385q0 206 53 302q70 127 246 127q128 0 180 -133v112h234v-1211q0 -194 -66 -289q-76 -109 -249 -109zM437 204q67 0 97 57q20 38 26 123v440q-6 81 -27 120q-30 54 -96 54q-78 0 -105 -61q-19 -41 -19 -140v-393
q0 -95 18 -137q27 -63 106 -63z" />
    <glyph glyph-name="Gdotaccent" unicode="&#x120;" horiz-adv-x="899" 
d="M449 1599q-72 0 -105 31.5t-33 97.5q0 68 33 99.5t105 31.5q75 0 108 -31t33 -100q0 -67 -33.5 -98t-107.5 -31zM451 -20q-207 0 -296 128q-72 104 -72 300v706q0 199 73 301q90 127 294 127l1 1q204 0 295 -126q72 -101 72 -289v-87h-237v86q0 84 -22 128
q-30 58 -108 58q-77 0 -108 -61q-22 -45 -22 -139v-704q0 -94 21 -137q30 -62 109 -62q75 0 106 56q24 43 24 127v197h-138v227h375v-425q0 -186 -73 -286q-90 -125 -293 -125q-1 0 -1 -1z" />
    <glyph glyph-name="gdotaccent" unicode="&#x121;" horiz-adv-x="891" 
d="M456 1279q-72 0 -105 31.5t-33 97.5q0 68 33 99.5t105 31.5q75 0 108 -31t33 -100q0 -67 -33.5 -98t-107.5 -31zM479 -407q-191 0 -290 53l15 196q38 -15 104 -21q69 -8 133 -8q61 0 90 41.5t29 136.5v120q-23 -61 -64 -95q-45 -36 -114 -36q-177 0 -247 128
q-54 97 -54 301v385q0 206 53 302q70 127 246 127q128 0 180 -133v112h234v-1211q0 -194 -66 -289q-76 -109 -249 -109zM437 204q67 0 97 57q20 38 26 123v440q-6 81 -27 120q-30 54 -96 54q-78 0 -105 -61q-19 -41 -19 -140v-393q0 -95 18 -137q27 -63 106 -63z" />
    <glyph glyph-name="Gcommaaccent" unicode="&#x122;" horiz-adv-x="899" 
d="M451 -20q-207 0 -296 128q-72 104 -72 300v706q0 199 73 301q90 127 294 127l1 1q204 0 295 -126q72 -101 72 -289v-87h-237v86q0 84 -22 128q-30 58 -108 58q-77 0 -108 -61q-22 -45 -22 -139v-704q0 -94 21 -137q30 -62 109 -62q75 0 106 56q24 43 24 127v197h-138v227
h375v-425q0 -186 -73 -286q-90 -125 -293 -125q-1 0 -1 -1zM469 -447l-86 48q29 41 42 71q12 29 16 68q-54 0 -80 24t-26 77q0 55 27 79t86 24q118 0 118 -125q0 -93 -30 -165q-22 -54 -67 -101z" />
    <glyph glyph-name="gcommaaccent" unicode="&#x123;" horiz-adv-x="891" 
d="M461 1315q-118 0 -118 125q0 90 31 166q23 55 66 100l86 -48q-30 -41 -41 -70q-13 -29 -17 -69q54 0 80 -24t26 -77q0 -55 -27 -79t-86 -24zM479 -407q-191 0 -290 53l15 196q38 -15 104 -21q69 -8 133 -8q61 0 90 41.5t29 136.5v120q-23 -61 -64 -95q-45 -36 -114 -36
q-177 0 -247 128q-54 97 -54 301v385q0 206 53 302q70 127 246 127q128 0 180 -133v112h234v-1211q0 -194 -66 -289q-76 -109 -249 -109zM437 204q67 0 97 57q20 38 26 123v440q-6 81 -27 120q-30 54 -96 54q-78 0 -105 -61q-19 -41 -19 -140v-393q0 -95 18 -137
q27 -63 106 -63z" />
    <glyph glyph-name="Hcircumflex" unicode="&#x124;" horiz-adv-x="990" 
d="M246 1601l138 241h221l138 -241h-190l-59 120l-57 -120h-191zM117 0v1521h238v-639h281v639h237v-1521h-237v652h-281v-652h-238z" />
    <glyph glyph-name="hcircumflex" unicode="&#x125;" horiz-adv-x="918" 
d="M215 1601l138 241h221l138 -241h-190l-59 120l-57 -120h-191zM108 0v1567h232v-482q46 137 180 137q175 0 245 -128q53 -97 53 -300v-794h-232v799q0 97 -17 136q-27 63 -107 63q-74 0 -102 -76q-20 -52 -20 -153v-769h-232z" />
    <glyph glyph-name="Hbar" unicode="&#x126;" horiz-adv-x="990" 
d="M117 0v1521h238v-254h281v254h237v-1521h-237v652h-281v-652h-238zM355 882h281v209h-281v-209z" />
    <glyph glyph-name="hbar" unicode="&#x127;" horiz-adv-x="918" 
d="M108 0v1319h-74v176h74v72h232v-72h168v-176h-168v-234q46 137 180 137q175 0 245 -128q53 -97 53 -300v-794h-232v799q0 97 -17 136q-27 63 -107 63q-74 0 -102 -76q-20 -52 -20 -153v-769h-232z" />
    <glyph glyph-name="Itilde" unicode="&#x128;" horiz-adv-x="473" 
d="M42 1622l-116 41q26 94 72 145q52 59 134 59q48 0 114 -33l45 -22q22 -11 44 -11q58 0 86 69l117 -38q-25 -98 -69 -146q-54 -60 -136 -60q-46 0 -110 33q-66 33 -90 33q-61 0 -91 -70zM118 0v1521h237v-1521h-237z" />
    <glyph glyph-name="itilde" unicode="&#x129;" horiz-adv-x="446" 
d="M34 1302l-116 41q26 94 72 145q52 59 134 59q48 0 114 -33l45 -22q22 -11 44 -11q58 0 86 69l117 -38q-25 -98 -69 -146q-54 -60 -136 -60q-46 0 -110 33q-66 33 -90 33q-61 0 -91 -70zM108 0v1202h232v-1202h-232z" />
    <glyph glyph-name="Imacron" unicode="&#x12a;" horiz-adv-x="473" 
d="M-5 1664v176h474v-176h-474zM118 0v1521h237v-1521h-237z" />
    <glyph glyph-name="imacron" unicode="&#x12b;" horiz-adv-x="446" 
d="M-13 1344v176h474v-176h-474zM108 0v1202h232v-1202h-232z" />
    <glyph glyph-name="Ibreve" unicode="&#x12c;" horiz-adv-x="473" 
d="M233 1601q-147 0 -216 79q-62 68 -64 188h134q7 -69 30 -96q32 -38 116 -38q80 0 113 36q24 28 31 98h134q-2 -120 -65 -189q-72 -78 -213 -78zM118 0v1521h237v-1521h-237z" />
    <glyph glyph-name="ibreve" unicode="&#x12d;" horiz-adv-x="446" 
d="M225 1281q-147 0 -216 79q-62 68 -64 188h134q7 -69 30 -96q32 -38 116 -38q80 0 113 36q24 28 31 98h134q-2 -120 -65 -189q-72 -78 -213 -78zM108 0v1202h232v-1202h-232z" />
    <glyph glyph-name="Iogonek" unicode="&#x12e;" horiz-adv-x="473" 
d="M248 -437q-103 0 -164 51q-72 59 -72 172q0 76 43 130q34 43 108 84h-45v1521h237v-1521h-5q-72 -45 -99 -85q-32 -47 -32 -109q0 -87 75 -87q32 0 51 6q17 5 38 18l14 -131q-46 -49 -149 -49z" />
    <glyph glyph-name="iogonek" unicode="&#x12f;" horiz-adv-x="446" 
d="M222 1346q-70 0 -103 28t-33 88t33 88t103 28q74 0 106.5 -27.5t32.5 -88.5t-32.5 -88.5t-106.5 -27.5zM238 -437q-103 0 -164 51q-72 59 -72 172q0 76 43 130q34 43 108 84h-45v1202h232v-1202q-72 -45 -99 -85q-32 -47 -32 -109q0 -87 75 -87q32 0 51 6q17 5 38 18
l14 -131q-46 -49 -149 -49z" />
    <glyph glyph-name="Idotaccent" unicode="&#x130;" horiz-adv-x="473" 
d="M230 1599q-72 0 -105 31.5t-33 97.5q0 68 33 99.5t105 31.5q75 0 108 -31t33 -100q0 -67 -33.5 -98t-107.5 -31zM118 0v1521h237v-1521h-237z" />
    <glyph glyph-name="dotlessi" unicode="&#x131;" horiz-adv-x="446" 
d="M108 0v1202h232v-1202h-232z" />
    <glyph glyph-name="IJ" unicode="&#x132;" horiz-adv-x="1139" 
d="M118 0v1521h237v-1521h-237zM671 -17q-118 0 -190 57l67 203q24 -17 48 -23q30 -8 75 -8q71 0 97 39q25 36 25 129v911h-201v230h437v-1148q0 -192 -71 -283q-83 -107 -287 -107z" />
    <glyph glyph-name="ij" unicode="&#x133;" horiz-adv-x="901" 
d="M224 1346q-70 0 -103 28t-33 88t33 88t103 28q74 0 107 -28t33 -88t-33 -88t-107 -28zM653 1346q-70 0 -103 28t-33 88t33 88t103 28q74 0 106.5 -27.5t32.5 -88.5t-32.5 -88.5t-106.5 -27.5zM110 0v1202h232v-1202h-232zM484 -407q-117 0 -207 67l15 195q25 -15 58 -26
q44 -16 97 -16q58 0 76 41q16 34 16 137v1211h233v-1211q0 -204 -52 -289q-66 -109 -236 -109z" />
    <glyph glyph-name="Jcircumflex" unicode="&#x134;" horiz-adv-x="666" 
d="M88 1588l138 241h221l138 -241h-190l-59 120l-57 -120h-191zM198 -17q-118 0 -190 57l67 203q24 -17 48 -23q30 -8 75 -8q71 0 97 39q25 36 25 129v911h-201v230h437v-1148q0 -192 -71 -283q-83 -107 -287 -107z" />
    <glyph glyph-name="jcircumflex" unicode="&#x135;" horiz-adv-x="449" 
d="M-28 1281l138 241h221l138 -241h-190l-59 120l-57 -120h-191zM52 -407q-117 0 -207 67l15 195q25 -15 58 -26q44 -16 97 -16q58 0 76 41q16 34 16 137v1211h234v-1211q0 -200 -53 -289q-65 -109 -236 -109z" />
    <glyph glyph-name="Kcommaaccent" unicode="&#x136;" horiz-adv-x="934" 
d="M117 0v1521h237v-639h87l223 639h253l-254 -743l274 -778h-253l-236 652h-94v-652h-237zM537 -447l-86 48q29 41 42 71q12 29 16 68q-54 0 -80 24t-26 77q0 55 27 79t86 24q118 0 118 -125q0 -93 -30 -165q-22 -54 -67 -101z" />
    <glyph glyph-name="kcommaaccent" unicode="&#x137;" horiz-adv-x="876" 
d="M106 0v1568h232v-848h86l180 482h236l-242 -601l273 -601h-257l-193 491h-83v-491h-232zM483 -447l-86 48q29 41 42 71q12 29 16 68q-54 0 -80 24t-26 77q0 55 27 79t86 24q118 0 118 -125q0 -93 -30 -165q-22 -54 -67 -101z" />
    <glyph glyph-name="kgreenlandic" unicode="&#x138;" horiz-adv-x="876" 
d="M106 0v1201h232v-481h86l180 482h236l-242 -601l273 -601h-257l-193 491h-83v-491h-232z" />
    <glyph glyph-name="Lacute" unicode="&#x139;" horiz-adv-x="753" 
d="M147 1601l131 274h221l-180 -274h-172zM117 0v1521h237v-1294h388v-227h-625z" />
    <glyph glyph-name="lacute" unicode="&#x13a;" horiz-adv-x="447" 
d="M138 1618l131 274h221l-180 -274h-172zM107 0v1568h232v-1568h-232z" />
    <glyph glyph-name="Lcommaaccent" unicode="&#x13b;" horiz-adv-x="753" 
d="M117 0v1521h237v-1294h388v-227h-625zM449 -447l-86 48q29 41 42 71q12 29 16 68q-54 0 -80 24t-26 77q0 55 27 79t86 24q118 0 118 -125q0 -93 -30 -165q-22 -54 -67 -101z" />
    <glyph glyph-name="lcommaaccent" unicode="&#x13c;" horiz-adv-x="447" 
d="M107 0v1568h232v-1568h-232zM241 -447l-86 48q29 41 42 71q12 29 16 68q-54 0 -80 24t-26 77q0 55 27 79t86 24q118 0 118 -125q0 -93 -30 -165q-22 -54 -67 -101z" />
    <glyph glyph-name="Lcaron" unicode="&#x13d;" horiz-adv-x="753" 
d="M124 1598l-138 241h190l58 -120l58 120h190l-138 -241h-220zM117 0v1521h237v-1294h388v-227h-625z" />
    <glyph glyph-name="lcaron" unicode="&#x13e;" horiz-adv-x="447" 
d="M112 1651l-138 241h190l58 -120l58 120h190l-138 -241h-220zM107 0v1568h232v-1568h-232z" />
    <glyph glyph-name="Ldot" unicode="&#x13f;" horiz-adv-x="753" 
d="M117 0v1521h237v-1294h388v-227h-625zM626 608q-71 0 -104.5 31.5t-33.5 97.5q0 68 33.5 99.5t104.5 31.5q75 0 108 -31t33 -100q0 -67 -33.5 -98t-107.5 -31z" />
    <glyph glyph-name="ldot" unicode="&#x140;" horiz-adv-x="447" 
d="M223 1665q-72 0 -105 31.5t-33 97.5q0 68 33 99.5t105 31.5q75 0 108 -31t33 -100q0 -67 -33.5 -98t-107.5 -31zM107 0v1568h232v-1568h-232z" />
    <glyph glyph-name="Lslash" unicode="&#x141;" horiz-adv-x="760" 
d="M118 0v433l-101 -77v261l101 77v827h237v-645l154 119v-261l-154 -119v-388h389v-227h-626z" />
    <glyph glyph-name="lslash" unicode="&#x142;" horiz-adv-x="446" 
d="M107 0v559l-168 -132v214l168 133v794h232v-611l166 132v-215l-166 -131v-743h-232z" />
    <glyph glyph-name="Nacute" unicode="&#x143;" horiz-adv-x="1032" 
d="M418 1600l131 274h221l-180 -274h-172zM117 0v1521h297l271 -976l-8 976h237l3 -1521h-277l-294 1000l9 -1000h-238z" />
    <glyph glyph-name="nacute" unicode="&#x144;" horiz-adv-x="918" 
d="M373 1281l131 274h221l-180 -274h-172zM108 0v1202h232v-120q26 60 82 99q59 41 128 41q166 0 226 -128q42 -92 42 -300v-794h-232v799q0 99 -15 136q-27 63 -105 63q-76 0 -105 -76q-21 -54 -21 -153v-769h-232z" />
    <glyph glyph-name="Ncommaaccent" unicode="&#x145;" horiz-adv-x="1032" 
d="M117 0v1521h297l271 -976l-8 976h237l3 -1521h-277l-294 1000l9 -1000h-238zM537 -447l-86 48q29 41 42 71q12 29 16 68q-54 0 -80 24t-26 77q0 55 27 79t86 24q118 0 118 -125q0 -93 -30 -165q-22 -54 -67 -101z" />
    <glyph glyph-name="ncommaaccent" unicode="&#x146;" horiz-adv-x="918" 
d="M108 0v1202h232v-120q26 60 82 99q59 41 128 41q166 0 226 -128q42 -92 42 -300v-794h-232v799q0 99 -15 136q-27 63 -105 63q-76 0 -105 -76q-21 -54 -21 -153v-769h-232zM493 -447l-86 48q29 41 42 71q12 29 16 68q-54 0 -80 24t-26 77q0 55 27 79t86 24
q118 0 118 -125q0 -93 -30 -165q-22 -54 -67 -101z" />
    <glyph glyph-name="Ncaron" unicode="&#x147;" horiz-adv-x="1033" 
d="M419 1601l-138 241h190l58 -120l58 120h190l-138 -241h-220zM117 0v1521h297l271 -976l-8 976h237l3 -1521h-277l-294 1000l9 -1000h-238z" />
    <glyph glyph-name="ncaron" unicode="&#x148;" horiz-adv-x="918" 
d="M353 1281l-138 241h190l58 -120l58 120h190l-138 -241h-220zM108 0v1202h232v-120q26 60 82 99q59 41 128 41q166 0 226 -128q42 -92 42 -300v-794h-232v799q0 99 -15 136q-27 63 -105 63q-76 0 -105 -76q-21 -54 -21 -153v-769h-232z" />
    <glyph glyph-name="napostrophe" unicode="&#x149;" horiz-adv-x="1138" 
d="M164 833l-86 48q29 41 42 71q12 29 16 68q-54 0 -80 24t-26 77q0 55 27 79t86 24q118 0 118 -125q0 -93 -30 -165q-22 -54 -67 -101zM336 0v1202h232v-120q26 60 82 99q59 41 128 41q166 0 226 -128q42 -92 42 -300v-794h-232v799q0 99 -15 136q-27 63 -105 63
q-76 0 -105 -76q-21 -54 -21 -153v-769h-232z" />
    <glyph glyph-name="Eng" unicode="&#x14a;" horiz-adv-x="990" 
d="M527 -424q-119 0 -191 57l68 202q31 -18 48 -22q30 -8 75 -8q71 0 96 39q24 36 24 129v27l-292 838v-838h-238v1521h264l269 -810v810h237v-1535q0 -206 -67 -297q-83 -113 -293 -113z" />
    <glyph glyph-name="eng" unicode="&#x14b;" horiz-adv-x="918" 
d="M530 -403q-117 0 -207 67l15 191q68 -38 155 -38q57 0 76 42q17 37 17 137v803q0 97 -17 136q-27 63 -107 63q-74 0 -102 -76q-20 -52 -20 -153v-769h-232v1202h232v-117q46 137 180 137q175 0 245 -128q53 -97 53 -300v-798q0 -202 -52 -289q-66 -110 -236 -110z" />
    <glyph glyph-name="Omacron" unicode="&#x14c;" horiz-adv-x="899" 
d="M212 1664v176h474v-176h-474zM449 -20q-206 0 -296 128q-72 102 -72 300v706q0 199 73 301q90 127 295 127v-1q0 1 1 1q208 0 296 -127q71 -103 71 -301v-706q0 -199 -72 -301q-90 -127 -295 -127l-1 1v-1zM453 209q76 1 106 63q21 42 21 137v704q0 96 -20 137
q-30 62 -110 62q-4 0 -5 1q-76 -1 -105 -62q-21 -46 -21 -138v-704q0 -94 21 -137q30 -62 109 -62h2q1 -1 2 -1z" />
    <glyph glyph-name="omacron" unicode="&#x14d;" horiz-adv-x="874" 
d="M194 1344v176h474v-176h-474zM440 -20q-208 0 -292 128q-68 101 -68 301v385q0 202 67 303q85 127 290 127t290 -129q66 -100 66 -300v-386q0 -202 -65 -301q-84 -128 -288 -128zM437 206q77 0 105 62q18 40 18 138v393q0 98 -17 138q-27 63 -106 63q-78 0 -105 -62
q-19 -41 -19 -139v-394q0 -97 17 -136q27 -63 107 -63z" />
    <glyph glyph-name="Obreve" unicode="&#x14e;" horiz-adv-x="899" 
d="M449 1601q-147 0 -216 79q-62 68 -64 188h134q7 -69 30 -96q32 -38 116 -38q80 0 113 36q24 28 31 98h134q-2 -120 -65 -189q-72 -78 -213 -78zM449 -20q-206 0 -296 128q-72 102 -72 300v706q0 199 73 301q90 127 295 127v-1q0 1 1 1q208 0 296 -127q71 -103 71 -301
v-706q0 -199 -72 -301q-90 -127 -295 -127l-1 1v-1zM453 209q76 1 106 63q21 42 21 137v704q0 96 -20 137q-30 62 -110 62q-4 0 -5 1q-76 -1 -105 -62q-21 -46 -21 -138v-704q0 -94 21 -137q30 -62 109 -62h2q1 -1 2 -1z" />
    <glyph glyph-name="obreve" unicode="&#x14f;" horiz-adv-x="874" 
d="M430 1281q-147 0 -216 79q-62 68 -64 188h134q7 -69 30 -96q32 -38 116 -38q80 0 113 36q24 28 31 98h134q-2 -120 -65 -189q-71 -78 -213 -78zM440 -20q-208 0 -292 128q-68 101 -68 301v385q0 202 67 303q85 127 290 127t290 -129q66 -100 66 -300v-386
q0 -202 -65 -301q-84 -128 -288 -128zM437 206q77 0 105 62q18 40 18 138v393q0 98 -17 138q-27 63 -106 63q-78 0 -105 -62q-19 -41 -19 -139v-394q0 -97 17 -136q27 -63 107 -63z" />
    <glyph glyph-name="Ohungarumlaut" unicode="&#x150;" horiz-adv-x="899" 
d="M228 1601l130 274h207l-173 -274h-164zM487 1601l130 274h208l-173 -274h-165zM449 -20q-206 0 -296 128q-72 102 -72 300v706q0 199 73 301q90 127 295 127v-1q0 1 1 1q208 0 296 -127q71 -103 71 -301v-706q0 -199 -72 -301q-90 -127 -295 -127l-1 1v-1zM453 209
q76 1 106 63q21 42 21 137v704q0 96 -20 137q-30 62 -110 62q-4 0 -5 1q-76 -1 -105 -62q-21 -46 -21 -138v-704q0 -94 21 -137q30 -62 109 -62h2q1 -1 2 -1z" />
    <glyph glyph-name="ohungarumlaut" unicode="&#x151;" horiz-adv-x="874" 
d="M174 1281l130 274h207l-173 -274h-164zM433 1281l130 274h208l-173 -274h-165zM440 -20q-208 0 -292 128q-68 101 -68 301v385q0 202 67 303q85 127 290 127t290 -129q66 -100 66 -300v-386q0 -202 -65 -301q-84 -128 -288 -128zM437 206q77 0 105 62q18 40 18 138v393
q0 98 -17 138q-27 63 -106 63q-78 0 -105 -62q-19 -41 -19 -139v-394q0 -97 17 -136q27 -63 107 -63z" />
    <glyph glyph-name="OE" unicode="&#x152;" horiz-adv-x="1310" 
d="M420 -17q-186 0 -263 124q-64 99 -64 300v710q0 200 63 301q78 123 263 123q94 0 157 -69v51l643 1v-229h-406v-406h337v-230h-337v-430h406v-229h-643v70q-28 -40 -58 -60q-40 -27 -98 -27zM463 212q73 0 113 71v959q-40 70 -115 70q-49 0 -78 -29q-20 -20 -34 -62
q-19 -89 -19 -225v-452q0 -145 20 -226q10 -52 36 -79t77 -27z" />
    <glyph glyph-name="oe" unicode="&#x153;" horiz-adv-x="1391" 
d="M453 -20q-208 0 -292 128q-68 101 -68 301v385q0 202 67 303q85 127 290 127q158 0 240 -73q85 73 242 73q205 0 290 -122q66 -95 66 -284v-249l-482 -92v-86q0 -85 21 -128q28 -57 105 -57q78 0 106 55q20 38 20 120v25h230v-23q0 -191 -65 -284q-83 -119 -288 -119
q-153 0 -243 72q-85 -72 -239 -72zM450 206q77 0 105 62q18 40 18 138v393q0 98 -17 138q-27 63 -106 63q-78 0 -105 -62q-19 -41 -19 -139v-394q0 -97 17 -136q27 -63 107 -63zM806 679l252 52v90q0 82 -18 121q-28 58 -108 58q-76 0 -104 -57q-22 -45 -22 -131v-133z" />
    <glyph glyph-name="Racute" unicode="&#x154;" horiz-adv-x="939" 
d="M332 1601l131 274h221l-180 -274h-172zM118 0v1521h366q192 0 279 -90q90 -96 90 -301v-164q0 -184 -154 -297q60 -42 87 -98q25 -55 36 -176l17 -210q7 -83 57 -185h-246q-13 29 -25 67q-19 61 -24 111l-18 212q-10 106 -54 157q-37 43 -93 41h-81v-588h-237zM355 818
h126q67 0 102 43q33 41 33 105v167q0 92 -34 127q-30 31 -99 31h-128v-473z" />
    <glyph glyph-name="racute" unicode="&#x155;" horiz-adv-x="607" 
d="M255 1281l131 274h221l-180 -274h-172zM108 0v1202h232v-125q49 147 184 147v-1q0 1 1 1q44 0 74 -21l1 -243l-14 6q-26 14 -62 22q-19 4 -46 4h-1q-75 0 -109 -68q-26 -54 -28 -144v-780h-232z" />
    <glyph glyph-name="Rcommaaccent" unicode="&#x156;" horiz-adv-x="939" 
d="M118 0v1521h366q192 0 279 -90q90 -96 90 -301v-164q0 -184 -154 -297q60 -42 87 -98q25 -55 36 -176l17 -210q7 -83 57 -185h-246q-13 29 -25 67q-19 61 -24 111l-18 212q-10 106 -54 157q-37 43 -93 41h-81v-588h-237zM355 818h126q67 0 102 43q33 41 33 105v167
q0 92 -34 127q-30 31 -99 31h-128v-473zM511 -447l-86 48q29 41 42 71q12 29 16 68q-54 0 -80 24t-26 77q0 55 27 79t86 24q118 0 118 -125q0 -93 -30 -165q-22 -54 -67 -101z" />
    <glyph glyph-name="rcommaaccent" unicode="&#x157;" horiz-adv-x="607" 
d="M108 0v1202h232v-125q49 147 184 147v-1q0 1 1 1q44 0 74 -21l1 -243l-14 6q-26 14 -62 22q-19 4 -46 4h-1q-75 0 -109 -68q-26 -54 -28 -144v-780h-232zM244 -447l-86 48q29 41 42 71q12 29 16 68q-54 0 -80 24t-26 77q0 55 27 79t86 24q118 0 118 -125q0 -93 -30 -165
q-22 -54 -67 -101z" />
    <glyph glyph-name="Rcaron" unicode="&#x158;" horiz-adv-x="939" 
d="M319 1601l-138 241h190l58 -120l58 120h190l-138 -241h-220zM118 0v1521h366q192 0 279 -90q90 -96 90 -301v-164q0 -184 -154 -297q60 -42 87 -98q25 -55 36 -176l17 -210q7 -83 57 -185h-246q-13 29 -25 67q-19 61 -24 111l-18 212q-10 106 -54 157q-37 43 -93 41h-81
v-588h-237zM355 818h126q67 0 102 43q33 41 33 105v167q0 92 -34 127q-30 31 -99 31h-128v-473z" />
    <glyph glyph-name="rcaron" unicode="&#x159;" horiz-adv-x="607" 
d="M232 1281l-138 241h190l58 -120l58 120h190l-138 -241h-220zM108 0v1202h232v-125q49 147 184 147v-1q0 1 1 1q44 0 74 -21l1 -243l-14 6q-26 14 -62 22q-19 4 -46 4h-1q-75 0 -109 -68q-26 -54 -28 -144v-780h-232z" />
    <glyph glyph-name="Sacute" unicode="&#x15a;" horiz-adv-x="876" 
d="M357 1601l131 274h221l-180 -274h-172zM440 -20q-207 0 -293 104q-77 92 -77 294v104h236v-102q0 -91 26 -127q28 -43 105 -43q73 0 105 45q28 39 28 115v12q0 91 -21 140q-25 55 -90 97l-144 93q-144 94 -190 187q-42 83 -42 239v27q0 377 364 377q183 0 270 -94.5
t87 -286.5v-120h-237l-1 133q0 64 -28 101q-30 38 -94 38q-67 0 -97 -44q-29 -40 -27 -113l1 -29q1 -61 29.5 -113.5t81.5 -83.5l129 -76q138 -82 193 -189q49 -94 54 -246v-50q0 -192 -87 -288q-92 -101 -281 -101z" />
    <glyph glyph-name="sacute" unicode="&#x15b;" horiz-adv-x="806" 
d="M311 1281l131 274h221l-180 -274h-172zM400 -20q-195 0 -281 111q-74 96 -74 293h233q0 -82 24 -125q29 -53 95 -53q56 0 85 34q25 29 25 81q0 66 -70 123q-29 24 -72 49q-129 78 -165 105q-86 65 -122 153q-20 48 -20 109q0 185 77 270q85 94 270 94q165 0 245 -77
q92 -90 92 -307l-233 1q0 70 -19 108q-26 51 -85 51q-55 0 -86 -36q-26 -30 -26 -77q0 -42 30.5 -75.5t88.5 -70.5q40 -25 110 -66q135 -77 195 -182q34 -58 34 -142q0 -179 -77 -269q-88 -102 -274 -102z" />
    <glyph glyph-name="Scircumflex" unicode="&#x15c;" horiz-adv-x="876" 
d="M209 1601l138 241h221l138 -241h-190l-59 120l-57 -120h-191zM440 -20q-207 0 -293 104q-77 92 -77 294v104h236v-102q0 -91 26 -127q28 -43 105 -43q73 0 105 45q28 39 28 115v12q0 91 -21 140q-25 55 -90 97l-144 93q-144 94 -190 187q-42 83 -42 239v27q0 377 364 377
q183 0 270 -94.5t87 -286.5v-120h-237l-1 133q0 64 -28 101q-30 38 -94 38q-67 0 -97 -44q-29 -40 -27 -113l1 -29q1 -61 29.5 -113.5t81.5 -83.5l129 -76q138 -82 193 -189q49 -94 54 -246v-50q0 -192 -87 -288q-92 -101 -281 -101z" />
    <glyph glyph-name="scircumflex" unicode="&#x15d;" horiz-adv-x="806" 
d="M151 1281l138 241h221l138 -241h-190l-59 120l-57 -120h-191zM400 -20q-195 0 -281 111q-74 96 -74 293h233q0 -82 24 -125q29 -53 95 -53q56 0 85 34q25 29 25 81q0 66 -70 123q-29 24 -72 49q-129 78 -165 105q-86 65 -122 153q-20 48 -20 109q0 185 77 270
q85 94 270 94q165 0 245 -77q92 -90 92 -307l-233 1q0 70 -19 108q-26 51 -85 51q-55 0 -86 -36q-26 -30 -26 -77q0 -42 30.5 -75.5t88.5 -70.5q40 -25 110 -66q135 -77 195 -182q34 -58 34 -142q0 -179 -77 -269q-88 -102 -274 -102z" />
    <glyph glyph-name="Scedilla" unicode="&#x15e;" horiz-adv-x="876" 
d="M469 -410q-127 0 -200 75l37 86q32 -23 65 -34q37 -14 92 -14q40 0 64.5 16t24.5 48q0 26 -32 41q-28 12 -68 12q-30 0 -56 -8v169q-182 11 -258 115q-68 91 -68 282v104h236v-102q0 -91 26 -127q28 -43 105 -43q73 0 105 45q28 39 28 115v12q0 91 -21 140q-25 55 -90 97
l-144 93q-144 94 -190 187q-42 83 -42 239v27q0 377 364 377q183 0 270 -94.5t87 -286.5v-120h-237l-1 133q0 64 -28 101q-30 38 -94 38q-67 0 -97 -44q-29 -40 -27 -113l1 -29q1 -61 29.5 -113.5t81.5 -83.5l129 -76q138 -82 193 -189q49 -94 54 -246v-50q0 -348 -293 -384
v-59l17 3q15 4 42 4q67 0 110 -46q40 -45 40 -110q0 -90 -71 -140q-66 -47 -184 -47z" />
    <glyph glyph-name="scedilla" unicode="&#x15f;" horiz-adv-x="806" 
d="M405 -410q-127 0 -200 75l37 86q32 -23 65 -34q37 -14 92 -14q40 0 64.5 16t24.5 48q0 26 -32 41q-28 12 -68 12q-30 0 -56 -8v172q-158 17 -227 126q-60 93 -60 274h233q0 -82 24 -125q29 -53 95 -53q56 0 85 34q25 29 25 81q0 66 -70 123q-29 24 -72 49
q-129 78 -165 105q-86 65 -122 153q-20 48 -20 109q0 185 77 270q85 94 270 94q165 0 245 -77q92 -90 92 -307l-233 1q0 70 -19 108q-26 51 -85 51q-55 0 -86 -36q-26 -30 -26 -77q0 -42 30.5 -75.5t88.5 -70.5q40 -25 110 -66q135 -77 195 -182q34 -58 34 -142
q0 -168 -66 -256q-75 -100 -234 -113v-56l17 3q15 4 42 4q67 0 110 -46q40 -45 40 -110q0 -90 -71 -140q-66 -47 -184 -47z" />
    <glyph glyph-name="Scaron" unicode="&#x160;" horiz-adv-x="876" 
d="M347 1601l-138 241h190l58 -120l58 120h190l-138 -241h-220zM440 -20q-207 0 -293 104q-77 92 -77 294v104h236v-102q0 -91 26 -127q28 -43 105 -43q73 0 105 45q28 39 28 115v12q0 91 -21 140q-25 55 -90 97l-144 93q-144 94 -190 187q-42 83 -42 239v27q0 377 364 377
q183 0 270 -94.5t87 -286.5v-120h-237l-1 133q0 64 -28 101q-30 38 -94 38q-67 0 -97 -44q-29 -40 -27 -113l1 -29q1 -61 29.5 -113.5t81.5 -83.5l129 -76q138 -82 193 -189q49 -94 54 -246v-50q0 -192 -87 -288q-92 -101 -281 -101z" />
    <glyph glyph-name="scaron" unicode="&#x161;" horiz-adv-x="806" 
d="M290 1281l-138 241h190l58 -120l58 120h190l-138 -241h-220zM400 -20q-195 0 -281 111q-74 96 -74 293h233q0 -82 24 -125q29 -53 95 -53q56 0 85 34q25 29 25 81q0 66 -70 123q-29 24 -72 49q-129 78 -165 105q-86 65 -122 153q-20 48 -20 109q0 185 77 270
q85 94 270 94q165 0 245 -77q92 -90 92 -307l-233 1q0 70 -19 108q-26 51 -85 51q-55 0 -86 -36q-26 -30 -26 -77q0 -42 30.5 -75.5t88.5 -70.5q40 -25 110 -66q135 -77 195 -182q34 -58 34 -142q0 -179 -77 -269q-88 -102 -274 -102z" />
    <glyph glyph-name="uni0162" unicode="&#x162;" horiz-adv-x="759" 
d="M260 0v1291h-249v230h736v-230h-249v-1291h-238zM397 -447l-86 48q29 41 42 71q12 29 16 68q-54 0 -80 24t-26 77q0 55 27 79t86 24q118 0 118 -125q0 -93 -30 -165q-22 -54 -67 -101z" />
    <glyph glyph-name="uni0163" unicode="&#x163;" horiz-adv-x="662" 
d="M437 -20q-171 0 -236 109q-53 89 -53 289v608h-125v217h125v386h234v-386h201v-217h-201v-608q0 -103 16 -137q18 -41 76 -41q53 0 97 16q23 7 58 26l15 -195q-90 -67 -207 -67zM436 -447l-86 48q29 41 42 71q12 29 16 68q-54 0 -80 24t-26 77q0 55 27 79t86 24
q118 0 118 -125q0 -93 -30 -165q-22 -54 -67 -101z" />
    <glyph glyph-name="Tcaron" unicode="&#x164;" horiz-adv-x="759" 
d="M268 1601l-138 241h190l58 -120l58 120h190l-138 -241h-220zM260 0v1291h-249v230h736v-230h-249v-1291h-238z" />
    <glyph glyph-name="tcaron" unicode="&#x165;" horiz-adv-x="774" 
d="M720 1122l-105 61q34 45 51 86q13 32 20 83q-129 0 -129 129q0 68 33.5 99.5t104.5 31.5q142 0 142 -157q0 -116 -36 -206q-28 -71 -81 -127zM437 -20q-171 0 -236 109q-53 89 -53 289v608h-125v217h125v386h234v-386h201v-217h-201v-608q0 -103 16 -137q18 -41 76 -41
q53 0 97 16q23 7 58 26l15 -195q-90 -67 -207 -67z" />
    <glyph glyph-name="Tbar" unicode="&#x166;" horiz-adv-x="759" 
d="M260 0v654h-118v176h118v461h-249v230h736v-230h-249v-461h118v-176h-118v-654h-238z" />
    <glyph glyph-name="tbar" unicode="&#x167;" horiz-adv-x="662" 
d="M437 -20q-171 0 -236 109q-53 89 -53 289v193h-104v176h104v239h-125v217h125v386h234v-386h201v-217h-201v-239h136v-176h-136v-193q0 -103 16 -137q18 -41 76 -41q53 0 97 16q23 7 58 26l15 -195q-90 -67 -207 -67z" />
    <glyph glyph-name="Utilde" unicode="&#x168;" horiz-adv-x="931" 
d="M276 1622l-116 41q26 94 72 145q52 59 134 59q48 0 114 -33l45 -22q22 -11 44 -11q58 0 86 69l117 -38q-25 -98 -69 -146q-54 -60 -136 -60q-46 0 -110 33q-66 33 -90 33q-61 0 -91 -70zM467 -20q-207 0 -294 107q-73 90 -73 283v1151h236v-1148q0 -84 21 -117
q29 -47 110 -47t110 47q20 31 20 117v1148h236v-1151q0 -193 -73 -283q-87 -107 -293 -107z" />
    <glyph glyph-name="utilde" unicode="&#x169;" horiz-adv-x="921" 
d="M266 1302l-116 41q26 94 72 145q52 59 134 59q48 0 114 -33l45 -22q22 -11 44 -11q58 0 86 69l117 -38q-25 -98 -69 -146q-54 -60 -136 -60q-46 0 -110 33q-66 33 -90 33q-61 0 -91 -70zM405 -19q-178 0 -248 128q-54 99 -54 300v794h232v-799q0 -96 17 -136
q27 -64 107 -64q76 0 105 75q18 49 18 153v770h231v-1202h-231v118q-51 -137 -177 -137z" />
    <glyph glyph-name="Umacron" unicode="&#x16a;" horiz-adv-x="931" 
d="M229 1664v176h474v-176h-474zM467 -20q-207 0 -294 107q-73 90 -73 283v1151h236v-1148q0 -84 21 -117q29 -47 110 -47t110 47q20 31 20 117v1148h236v-1151q0 -193 -73 -283q-87 -107 -293 -107z" />
    <glyph glyph-name="umacron" unicode="&#x16b;" horiz-adv-x="921" 
d="M219 1344v176h474v-176h-474zM405 -19q-178 0 -248 128q-54 99 -54 300v794h232v-799q0 -96 17 -136q27 -64 107 -64q76 0 105 75q18 49 18 153v770h231v-1202h-231v118q-51 -137 -177 -137z" />
    <glyph glyph-name="Ubreve" unicode="&#x16c;" horiz-adv-x="931" 
d="M465 1601q-147 0 -216 79q-62 68 -64 188h134q7 -69 30 -96q32 -38 116 -38q80 0 113 36q24 28 31 98h134q-2 -120 -65 -189q-72 -78 -213 -78zM467 -20q-207 0 -294 107q-73 90 -73 283v1151h236v-1148q0 -84 21 -117q29 -47 110 -47t110 47q20 31 20 117v1148h236
v-1151q0 -193 -73 -283q-87 -107 -293 -107z" />
    <glyph glyph-name="ubreve" unicode="&#x16d;" horiz-adv-x="921" 
d="M457 1281q-147 0 -216 79q-62 68 -64 188h134q7 -69 30 -96q32 -38 116 -38q80 0 113 36q24 28 31 98h134q-2 -120 -65 -189q-72 -78 -213 -78zM405 -19q-178 0 -248 128q-54 99 -54 300v794h232v-799q0 -96 17 -136q27 -64 107 -64q76 0 105 75q18 49 18 153v770h231
v-1202h-231v118q-51 -137 -177 -137z" />
    <glyph glyph-name="Uring" unicode="&#x16e;" horiz-adv-x="931" 
d="M464 1594q-107 0 -158 48.5t-51 147.5q0 103 50.5 151.5t158.5 48.5q113 0 163 -48.5t50 -151.5q0 -100 -50.5 -148t-162.5 -48zM465 1733q34 0 48 14.5t14 43.5q0 30 -14 44.5t-48 14.5q-60 0 -60 -59q0 -58 60 -58zM467 -20q-207 0 -294 107q-73 90 -73 283v1151h236
v-1148q0 -84 21 -117q29 -47 110 -47t110 47q20 31 20 117v1148h236v-1151q0 -193 -73 -283q-87 -107 -293 -107z" />
    <glyph glyph-name="uring" unicode="&#x16f;" horiz-adv-x="921" 
d="M453 1274q-107 0 -158 48.5t-51 147.5q0 103 50.5 151.5t158.5 48.5q113 0 163 -48.5t50 -151.5q0 -100 -50.5 -148t-162.5 -48zM454 1413q34 0 48 14.5t14 43.5q0 30 -14 44.5t-48 14.5q-60 0 -60 -59q0 -58 60 -58zM405 -19q-178 0 -248 128q-54 99 -54 300v794h232
v-799q0 -96 17 -136q27 -64 107 -64q76 0 105 75q18 49 18 153v770h231v-1202h-231v118q-51 -137 -177 -137z" />
    <glyph glyph-name="Uhungarumlaut" unicode="&#x170;" horiz-adv-x="931" 
d="M249 1601l130 274h207l-173 -274h-164zM508 1601l130 274h208l-173 -274h-165zM467 -20q-207 0 -294 107q-73 90 -73 283v1151h236v-1148q0 -84 21 -117q29 -47 110 -47t110 47q20 31 20 117v1148h236v-1151q0 -193 -73 -283q-87 -107 -293 -107z" />
    <glyph glyph-name="uhungarumlaut" unicode="&#x171;" horiz-adv-x="921" 
d="M247 1281l130 274h207l-173 -274h-164zM506 1281l130 274h208l-173 -274h-165zM405 -19q-178 0 -248 128q-54 99 -54 300v794h232v-799q0 -96 17 -136q27 -64 107 -64q76 0 105 75q18 49 18 153v770h231v-1202h-231v118q-51 -137 -177 -137z" />
    <glyph glyph-name="Uogonek" unicode="&#x172;" horiz-adv-x="931" 
d="M572 -417q-103 0 -164 51q-72 59 -72 172q0 105 90 175q-185 10 -261 116q-65 89 -65 273v1151h236v-1148q0 -84 21 -117q29 -47 110 -47t110 47q20 31 20 117v1148h236v-1151q0 -134 -35 -218q-39 -94 -131 -136q-67 -42 -94 -83q-30 -45 -30 -107q0 -87 75 -87
q32 0 51 6q17 5 38 18l14 -131q-46 -49 -149 -49z" />
    <glyph glyph-name="uogonek" unicode="&#x173;" horiz-adv-x="921" 
d="M710 -437q-103 0 -164 51q-72 59 -72 172q0 76 43 130q34 43 108 84h-43v118q-51 -137 -177 -137q-178 0 -248 128q-54 99 -54 300v794h232v-799q0 -96 17 -136q27 -64 107 -64q76 0 105 75q18 49 18 153v770h231v-1202h-1q-72 -45 -99 -85q-32 -47 -32 -109
q0 -87 75 -87q32 0 51 6q17 5 38 18l14 -131q-46 -49 -149 -49z" />
    <glyph glyph-name="Wcircumflex" unicode="&#x174;" horiz-adv-x="1341" 
d="M423 1601l138 241h221l138 -241h-190l-59 120l-57 -120h-191zM231 0l-197 1522h239l119 -1164l129 1164h296l128 -1164l119 1164h240l-197 -1522h-306l-132 1135l-132 -1135h-306z" />
    <glyph glyph-name="wcircumflex" unicode="&#x175;" horiz-adv-x="1354" 
d="M380 1281l138 241h221l138 -241h-190l-59 120l-57 -120h-191zM194 0l-179 1203h239l123 -979h9l123 979h339l123 -979h9l123 979h239l-179 -1203h-361l-123 972l-123 -972h-362z" />
    <glyph glyph-name="Ycircumflex" unicode="&#x176;" horiz-adv-x="849" 
d="M184 1601l138 241h221l138 -241h-190l-59 120l-57 -120h-191zM311 0v556l-307 965h260l168 -638l180 638h234l-298 -965v-556h-237z" />
    <glyph glyph-name="ycircumflex" unicode="&#x177;" horiz-adv-x="807" 
d="M161 1281l138 241h221l138 -241h-190l-59 120l-57 -120h-191zM289 -452l-102 164q67 33 107 84q50 64 71 178l4 26h-147l-213 1203h240l153 -999h2l17 96l139 903h239q-42 -241 -73 -413t-73 -413l-70 -400q-29 -166 -109 -279q-77 -106 -185 -150z" />
    <glyph glyph-name="Ydieresis" unicode="&#x178;" horiz-adv-x="849" 
d="M299 1625q-57 0 -82.5 27.5t-25.5 85.5q0 60 25.5 87.5t82.5 27.5q59 0 85 -27t26 -88q0 -59 -26 -86t-85 -27zM563 1625q-56 0 -82 27.5t-26 85.5q0 60 26 87.5t82 27.5q60 0 86 -27.5t26 -87.5q0 -58 -26.5 -85.5t-85.5 -27.5zM311 0v556l-307 965h260l168 -638
l180 638h234l-298 -965v-556h-237z" />
    <glyph glyph-name="Zacute" unicode="&#x179;" horiz-adv-x="788" 
d="M322 1601l131 274h221l-180 -274h-172zM55 0v214l411 1077h-393v230h661v-199l-419 -1093h420v-229h-680z" />
    <glyph glyph-name="zacute" unicode="&#x17a;" horiz-adv-x="758" 
d="M290 1281l131 274h221l-180 -274h-172zM43 0v198l396 788h-368v216h626v-197l-394 -783h394v-222h-654z" />
    <glyph glyph-name="Zdotaccent" unicode="&#x17b;" horiz-adv-x="788" 
d="M406 1599q-72 0 -105 31.5t-33 97.5q0 68 33 99.5t105 31.5q75 0 108 -31t33 -100q0 -67 -33.5 -98t-107.5 -31zM55 0v214l411 1077h-393v230h661v-199l-419 -1093h420v-229h-680z" />
    <glyph glyph-name="zdotaccent" unicode="&#x17c;" horiz-adv-x="758" 
d="M370 1279q-72 0 -105 31.5t-33 97.5q0 68 33 99.5t105 31.5q75 0 108 -31t33 -100q0 -67 -33.5 -98t-107.5 -31zM43 0v198l396 788h-368v216h626v-197l-394 -783h394v-222h-654z" />
    <glyph glyph-name="Zcaron" unicode="&#x17d;" horiz-adv-x="788" 
d="M298 1601l-138 241h190l58 -120l58 120h190l-138 -241h-220zM55 0v214l411 1077h-393v230h661v-199l-419 -1093h420v-229h-680z" />
    <glyph glyph-name="zcaron" unicode="&#x17e;" horiz-adv-x="758" 
d="M267 1281l-138 241h190l58 -120l58 120h190l-138 -241h-220zM43 0v198l396 788h-368v216h626v-197l-394 -783h394v-222h-654z" />
    <glyph glyph-name="longs" unicode="&#x17f;" horiz-adv-x="576" 
d="M131 0v986h-115v217h115v8q0 202 53 289q66 109 235 109q39 0 99 -15q38 -11 81 -30l-42 -192q-59 17 -101 17q-58 0 -75 -40q-17 -38 -17 -138v-1211h-233z" />
    <glyph glyph-name="AEacute" unicode="&#x1fc;" horiz-adv-x="1104" 
d="M589 1601l131 274h221l-180 -274h-172zM-31 0l393 1521h695v-230h-316v-402h247v-230h-247v-430h316v-229h-553v269h-235l-63 -269h-237zM320 486h184v776z" />
    <glyph glyph-name="aeacute" unicode="&#x1fd;" horiz-adv-x="1388" 
d="M589 1281l131 274h221l-180 -274h-172zM417 -20q-184 0 -264 109q-68 92 -68 273q0 175 54 248q66 89 247 89q109 0 186 -27v127q0 97 -18 139q-28 62 -105 62q-72 0 -100 -57q-20 -39 -20 -115v-24h-232v20q0 184 67 279q83 121 283 121q164 0 242 -81q76 81 240 81
q205 0 290 -122q66 -95 66 -284v-249l-483 -92v-70q0 -95 19 -137q29 -64 108 -64q78 0 106 55q19 38 19 120v25h231v-23q0 -191 -65 -284q-85 -119 -289 -119q-179 0 -256 98q-103 -98 -258 -98zM802 679l252 52v90q0 82 -18 121q-28 58 -107 58t-107 -62q-20 -45 -20 -141
v-118zM448 204q70 0 104 65q24 48 24 133v72q-52 32 -132 32q-76 0 -103 -47q-19 -31 -19 -102q0 -70 24 -107q30 -46 102 -46z" />
    <glyph glyph-name="Oslashacute" unicode="&#x1fe;" horiz-adv-x="899" 
d="M281 1601l131 274h221l-180 -274h-172zM334 -119l-219 39l46 176q-80 105 -80 312v706q0 199 73 301q90 127 295 127v-1q0 1 1 1q39 0 86 -7l32 119l213 -55l-45 -172q81 -103 81 -313v-706q0 -199 -72 -301q-90 -127 -295 -127l-1 1v-1q-41 0 -88 7zM453 209
q76 1 106 63q21 42 21 137v704q0 96 -20 137q-30 62 -110 62q-4 0 -5 1q-76 -1 -105 -62q-21 -46 -21 -138v-704q0 -94 21 -137q30 -62 109 -62h2q1 -1 2 -1z" />
    <glyph glyph-name="oslashacute" unicode="&#x1ff;" horiz-adv-x="872" 
d="M335 1378l131 274h221l-180 -274h-172zM181 -94l-172 3l114 244q-43 95 -43 256v385q0 202 67 303q85 127 290 127q97 0 171 -30l57 122l170 -3l-104 -224q62 -102 62 -294v-386q0 -202 -65 -301q-84 -128 -288 -128q-122 0 -204 45zM313 561l195 419q-28 20 -71 20
q-78 0 -105 -62q-19 -41 -19 -139v-238zM437 206q77 0 105 62q18 40 18 138v315l-220 -472q30 -43 97 -43z" />
    <glyph glyph-name="Scommaaccent" unicode="&#x218;" horiz-adv-x="876" 
d="M440 -20q-207 0 -293 104q-77 92 -77 294v104h236v-102q0 -91 26 -127q28 -43 105 -43q73 0 105 45q28 39 28 115v12q0 91 -21 140q-25 55 -90 97l-144 93q-144 94 -190 187q-42 83 -42 239v27q0 377 364 377q183 0 270 -94.5t87 -286.5v-120h-237l-1 133q0 64 -28 101
q-30 38 -94 38q-67 0 -97 -44q-29 -40 -27 -113l1 -29q1 -61 29.5 -113.5t81.5 -83.5l129 -76q138 -82 193 -189q49 -94 54 -246v-50q0 -192 -87 -288q-92 -101 -281 -101zM505 -454l-86 48q29 40 42 71q12 29 16 68q-54 0 -80 24t-26 77q0 55 27 79t86 24q118 0 118 -125
q0 -93 -30 -165q-22 -54 -67 -101z" />
    <glyph glyph-name="scommaaccent" unicode="&#x219;" horiz-adv-x="806" 
d="M400 -20q-195 0 -281 111q-74 96 -74 293h233q0 -82 24 -125q29 -53 95 -53q56 0 85 34q25 29 25 81q0 66 -70 123q-29 24 -72 49q-129 78 -165 105q-86 65 -122 153q-20 48 -20 109q0 185 77 270q85 94 270 94q165 0 245 -77q92 -90 92 -307l-233 1q0 70 -19 108
q-26 51 -85 51q-55 0 -86 -36q-26 -30 -26 -77q0 -42 30.5 -75.5t88.5 -70.5q40 -25 110 -66q135 -77 195 -182q34 -58 34 -142q0 -179 -77 -269q-88 -102 -274 -102zM419 -447l-86 48q29 41 42 71q12 29 16 68q-54 0 -80 24t-26 77q0 55 27 79t86 24q118 0 118 -125
q0 -93 -30 -165q-22 -54 -67 -101z" />
    <glyph glyph-name="uni021A" unicode="&#x21a;" horiz-adv-x="759" 
d="M260 0v1291h-249v230h736v-230h-249v-1291h-238zM394 -447l-86 48q29 41 42 71q12 29 16 68q-54 0 -80 24t-26 77q0 55 27 79t86 24q118 0 118 -125q0 -93 -30 -165q-22 -54 -67 -101z" />
    <glyph glyph-name="uni021B" unicode="&#x21b;" horiz-adv-x="662" 
d="M437 -20q-171 0 -236 109q-53 89 -53 289v608h-125v217h125v386h234v-386h201v-217h-201v-608q0 -103 16 -137q18 -41 76 -41q53 0 97 16q23 7 58 26l15 -195q-90 -67 -207 -67zM349 -447l-86 48q29 41 42 71q12 29 16 68q-54 0 -80 24t-26 77q0 55 27 79t86 24
q118 0 118 -125q0 -93 -30 -165q-22 -54 -67 -101z" />
    <glyph glyph-name="uni0237" unicode="&#x237;" horiz-adv-x="327" 
d="M55 -407q-117 0 -207 67l15 195q25 -15 58 -26q44 -16 97 -16q58 0 76 41q16 34 16 137v1211h234v-1211q0 -200 -53 -289q-65 -109 -236 -109z" />
    <glyph glyph-name="circumflex" unicode="&#x2c6;" horiz-adv-x="478" 
d="M-3 1281l138 241h221l138 -241h-190l-59 120l-57 -120h-191z" />
    <glyph glyph-name="caron" unicode="&#x2c7;" horiz-adv-x="682" 
d="M228 1281l-138 241h190l58 -120l58 120h190l-138 -241h-220z" />
    <glyph glyph-name="breve" unicode="&#x2d8;" horiz-adv-x="710" 
d="M342 1281q-147 0 -216 79q-62 68 -64 188h134q7 -69 30 -96q32 -38 116 -38q80 0 113 36q24 28 31 98h134q-2 -120 -65 -189q-72 -78 -213 -78z" />
    <glyph glyph-name="dotaccent" unicode="&#x2d9;" horiz-adv-x="488" 
d="M214 1279q-72 0 -105 31.5t-33 97.5q0 68 33 99.5t105 31.5q75 0 108 -31t33 -100q0 -67 -33.5 -98t-107.5 -31z" />
    <glyph glyph-name="ring" unicode="&#x2da;" horiz-adv-x="415" 
d="M200 1274q-107 0 -158 48.5t-51 147.5q0 103 50.5 151.5t158.5 48.5q113 0 163 -48.5t50 -151.5q0 -100 -50.5 -148t-162.5 -48zM201 1413q34 0 48 14.5t14 43.5q0 30 -14 44.5t-48 14.5q-60 0 -60 -59q0 -58 60 -58z" />
    <glyph glyph-name="ogonek" unicode="&#x2db;" horiz-adv-x="488" 
d="M233 -437q-103 0 -164 51q-72 59 -72 172q0 95 74 161q51 45 169 97l95 -44q-72 -45 -99 -85q-32 -47 -32 -109q0 -87 75 -87q31 0 51 6q18 5 38 18l14 -131q-46 -49 -149 -49z" />
    <glyph glyph-name="tilde" unicode="&#x2dc;" horiz-adv-x="477" 
d="M38 1302l-116 41q26 94 72 145q52 59 134 59q48 0 114 -33l45 -22q22 -11 44 -11q58 0 86 69l117 -38q-25 -98 -69 -146q-54 -60 -136 -60q-46 0 -110 33q-66 33 -90 33q-61 0 -91 -70z" />
    <glyph glyph-name="hungarumlaut" unicode="&#x2dd;" horiz-adv-x="406" 
d="M-88 1281l130 274h207l-173 -274h-164zM171 1281l130 274h208l-173 -274h-165z" />
    <glyph glyph-name="tonos" unicode="&#x384;" horiz-adv-x="529" 
d="M371 1281l-21 274h201l-28 -274h-152z" />
    <glyph glyph-name="dieresistonos" unicode="&#x385;" horiz-adv-x="484" 
d="M224 1415l-21 274h194l-28 -274h-145zM79 1305q-57 0 -83 27.5t-26 85.5q0 60 26 87.5t83 27.5q59 0 85 -27.5t26 -87.5q0 -58 -26 -85.5t-85 -27.5zM507 1305q-56 0 -82 27.5t-26 85.5q0 60 26 87.5t82 27.5q60 0 86 -27.5t26 -87.5q0 -58 -26.5 -85.5t-85.5 -27.5z" />
    <glyph glyph-name="Alphatonos" unicode="&#x386;" horiz-adv-x="884" 
d="M8 0l260 1522h320l260 -1522h-240l-39 269h-284l-38 -269h-239zM7 1247l-21 274h201l-28 -274h-152zM317 486h221l-110 770z" />
    <glyph glyph-name="Epsilontonos" unicode="&#x388;" horiz-adv-x="826" 
d="M-117 1249l-21 274h201l-28 -274h-152zM114 0v1521h643v-230h-406v-402h337v-230h-337v-430h406v-229h-643z" />
    <glyph glyph-name="Etatonos" unicode="&#x389;" horiz-adv-x="990" 
d="M117 0v1521h238v-639h281v639h237v-1521h-237v652h-281v-652h-238zM-109 1245l-21 274h201l-28 -274h-152z" />
    <glyph glyph-name="Iotatonos" unicode="&#x38a;" horiz-adv-x="566" 
d="M211 0v1521h237v-1521h-237zM-55 1245l-21 274h201l-28 -274h-152z" />
    <glyph glyph-name="Omicrontonos" unicode="&#x38c;" horiz-adv-x="874" 
d="M-96 1298l-21 274h201l-28 -274h-152zM448 -20q-206 0 -296 128q-72 102 -72 300v706q0 199 73 301q90 127 295 127v-1q0 1 1 1q208 0 296 -127q71 -103 71 -301v-706q0 -199 -72 -301q-90 -127 -295 -127l-1 1v-1zM452 209q76 1 106 63q21 42 21 137v704q0 96 -20 137
q-30 62 -110 62q-4 0 -5 1q-76 -1 -105 -62q-21 -46 -21 -138v-704q0 -94 21 -137q30 -62 109 -62h2q1 -1 2 -1z" />
    <glyph glyph-name="Upsilontonos" unicode="&#x38e;" horiz-adv-x="1133" 
d="M23 1280l-21 274h201l-28 -274h-152zM582 0v556l-307 965h260l168 -638l180 638h234l-298 -965v-556h-237z" />
    <glyph glyph-name="Omegatonos" unicode="&#x38f;" horiz-adv-x="923" 
d="M-81 1281l-21 274h201l-28 -274h-152zM109 0v227h119l-3 120q-77 51 -109 166q-22 79 -22 228v373q0 199 72 301q90 127 296 127q209 0 297 -127q71 -103 71 -301v-373q0 -148 -23 -230q-32 -114 -109 -164l-2 -120h118v-227h-315v526q59 0 79 52q14 36 14 117v418
q0 96 -20 137q-30 62 -110 62q-4 0 -5 1q-76 -1 -105 -63q-21 -46 -21 -137v-426q0 -76 15 -111q20 -50 79 -50v-526h-316z" />
    <glyph glyph-name="iotadieresistonos" unicode="&#x390;" horiz-adv-x="446" 
d="M149 1397l-21 274h194l-28 -274h-145zM4 1287q-57 0 -83 27.5t-26 85.5q0 60 26 87.5t83 27.5q59 0 85 -27.5t26 -87.5q0 -58 -26 -85.5t-85 -27.5zM432 1287q-56 0 -82 27.5t-26 85.5q0 60 26 87.5t82 27.5q60 0 86 -27.5t26 -87.5q0 -58 -26.5 -85.5t-85.5 -27.5z
M108 0v1202h232v-1202h-232z" />
    <glyph glyph-name="Alpha" unicode="&#x391;" horiz-adv-x="884" 
d="M8 0l260 1522h320l260 -1522h-240l-39 269h-284l-38 -269h-239zM317 486h221l-110 770z" />
    <glyph glyph-name="Beta" unicode="&#x392;" horiz-adv-x="937" 
d="M117 1v1520h362q180 0 271 -91q87 -88 87 -255v-89q0 -121 -33.5 -190.5t-107.5 -90.5q73 -20 115 -90t42 -176v-148q0 -206 -91 -300q-87 -90 -278 -90h-367zM354 903h101q80 0 115 39q32 37 30 122l-1 92q0 69 -29 107q-31 40 -98 40h-118v-400zM354 230h128
q70 0 101 31q34 34 33 126v152q0 65 -33 105q-35 43 -102 43h-127v-457z" />
    <glyph glyph-name="Gamma" unicode="&#x393;" horiz-adv-x="747" 
d="M108 0v1525h639v-230h-402v-1295h-237z" />
    <glyph glyph-name="uni0394" unicode="&#x394;" horiz-adv-x="884" 
d="M12 0l248 1521h355l244 -1521h-847zM289 230h294l-145 1013z" />
    <glyph glyph-name="Epsilon" unicode="&#x395;" horiz-adv-x="826" 
d="M114 0v1521h643v-230h-406v-402h337v-230h-337v-430h406v-229h-643z" />
    <glyph glyph-name="Zeta" unicode="&#x396;" horiz-adv-x="788" 
d="M55 0v214l411 1077h-393v230h661v-199l-419 -1093h420v-229h-680z" />
    <glyph glyph-name="Eta" unicode="&#x397;" horiz-adv-x="990" 
d="M117 0v1521h238v-639h281v639h237v-1521h-237v652h-281v-652h-238z" />
    <glyph glyph-name="Theta" unicode="&#x398;" horiz-adv-x="899" 
d="M449 -20q-206 0 -296 128q-72 102 -72 300v706q0 199 73 301q90 127 295 127v-1q0 1 1 1q208 0 296 -127q71 -103 71 -301v-706q0 -199 -72 -301q-90 -127 -295 -127l-1 1v-1zM453 209q76 1 106 63q21 42 21 137v704q0 96 -20 137q-30 62 -110 62q-4 0 -5 1
q-76 -1 -105 -62q-21 -46 -21 -138v-704q0 -94 21 -137q30 -62 109 -62h2q1 -1 2 -1zM371 642v230h161v-230h-161z" />
    <glyph glyph-name="Iota" unicode="&#x399;" horiz-adv-x="473" 
d="M118 0v1521h237v-1521h-237z" />
    <glyph glyph-name="Kappa" unicode="&#x39a;" horiz-adv-x="934" 
d="M117 0v1521h237v-639h87l223 639h253l-254 -743l274 -778h-253l-236 652h-94v-652h-237z" />
    <glyph glyph-name="Lambda" unicode="&#x39b;" horiz-adv-x="872" 
d="M12 0l248 1521h354l245 -1521h-243l-178 1243l-183 -1243h-243z" />
    <glyph glyph-name="Mu" unicode="&#x39c;" horiz-adv-x="1246" 
d="M118 0v1521h307l200 -924l201 924h306v-1521h-238l24 1098l-190 -908h-205l-192 923l24 -1113h-237z" />
    <glyph glyph-name="Nu" unicode="&#x39d;" horiz-adv-x="990" 
d="M117 0v1521h283l289 -1025v1025h224l3 -1521h-264l-311 1047v-1047h-224z" />
    <glyph glyph-name="Xi" unicode="&#x39e;" horiz-adv-x="837" 
d="M93 1295v228l650 1v-229h-650zM161 659v230h513v-230h-513zM93 0l-1 229h651v-229h-650z" />
    <glyph glyph-name="Omicron" unicode="&#x39f;" horiz-adv-x="874" 
d="M448 -20q-206 0 -296 128q-72 102 -72 300v706q0 199 73 301q90 127 295 127h1q208 0 296 -127q71 -103 71 -301v-706q0 -199 -72 -301q-90 -127 -295 -127l-1 1v-1zM452 209q76 1 106 63q21 42 21 137v704q0 96 -20 137q-30 62 -110 62q-4 0 -5 1q-76 -1 -105 -62
q-21 -46 -21 -138v-704q0 -94 21 -137q30 -62 109 -62h2q1 -1 2 -1z" />
    <glyph glyph-name="Pi" unicode="&#x3a0;" horiz-adv-x="969" 
d="M108 0v1521h755v-1521h-237v1291h-281v-1291h-237z" />
    <glyph glyph-name="Rho" unicode="&#x3a1;" horiz-adv-x="933" 
d="M107 0v1521h349q178 0 269 -81q101 -92 101 -291v-244q0 -209 -100 -301q-88 -80 -275 -80h-107v-524h-237zM344 752h104q77 0 108.5 34.5t31.5 118.5v244q0 72 -30 107t-101 35h-113v-539z" />
    <glyph glyph-name="Sigma" unicode="&#x3a3;" horiz-adv-x="785" 
d="M51 0v214l257 547l-250 547v213h664v-229h-404l236 -491v-81l-243 -491h421v-229h-681z" />
    <glyph glyph-name="Tau" unicode="&#x3a4;" horiz-adv-x="759" 
d="M260 0v1291h-249v230h736v-230h-249v-1291h-238z" />
    <glyph glyph-name="Upsilon" unicode="&#x3a5;" horiz-adv-x="849" 
d="M311 0v556l-307 965h260l168 -638l180 638h234l-298 -965v-556h-237z" />
    <glyph glyph-name="Phi" unicode="&#x3a6;" horiz-adv-x="1159" 
d="M461 0v120q-208 0 -296 126q-72 103 -72 298v433q0 199 72 300q89 125 296 125v119h237v-119q209 0 297 -126q71 -101 71 -298v-434q0 -198 -72 -299q-89 -125 -296 -125v-120h-237zM461 350v823q-79 0 -108 -59q-23 -46 -23 -137v-432q0 -92 21 -134q30 -61 110 -61z
M698 349q80 0 109 59q21 42 21 137v432q0 94 -20 135q-30 60 -110 60v-823z" />
    <glyph glyph-name="Chi" unicode="&#x3a7;" horiz-adv-x="917" 
d="M12 0l287 788l-263 733h260l166 -491l163 491h259l-270 -734l291 -787h-264l-188 547l-178 -547h-263z" />
    <glyph glyph-name="Psi" unicode="&#x3a8;" horiz-adv-x="1159" 
d="M462 0v412q-208 0 -296 126q-72 103 -72 298v687l237 -1v-685q0 -92 21 -134q30 -62 110 -62v880h237v-880q79 0 109 59q21 42 21 137v685l237 1v-687q0 -198 -72 -299q-89 -125 -295 -125v-412h-237z" />
    <glyph glyph-name="uni03A9" unicode="&#x3a9;" horiz-adv-x="923" 
d="M109 0v227h119l-3 120q-77 51 -109 166q-22 79 -22 228v373q0 199 72 301q90 127 296 127q209 0 297 -127q71 -103 71 -301v-373q0 -148 -23 -230q-32 -114 -109 -164l-2 -120h118v-227h-315v526q59 0 79 52q14 36 14 117v418q0 96 -20 137q-30 62 -110 62q-4 0 -5 1
q-76 -1 -105 -63q-21 -46 -21 -137v-426q0 -76 15 -111q20 -50 79 -50v-526h-316z" />
    <glyph glyph-name="Iotadieresis" unicode="&#x3aa;" horiz-adv-x="473" 
d="M98 1624q-57 0 -82.5 27.5t-25.5 85.5q0 60 25.5 87.5t82.5 27.5q59 0 85 -27t26 -88q0 -59 -26 -86t-85 -27zM362 1624q-56 0 -82 27.5t-26 85.5q0 60 26 87.5t82 27.5q60 0 86 -27.5t26 -87.5q0 -58 -26.5 -85.5t-85.5 -27.5zM118 0v1521h237v-1521h-237z" />
    <glyph glyph-name="Upsilondieresis" unicode="&#x3ab;" horiz-adv-x="849" 
d="M298 1624q-57 0 -82.5 27.5t-25.5 85.5q0 60 25.5 87.5t82.5 27.5q59 0 85 -27t26 -88q0 -59 -26 -86t-85 -27zM562 1624q-56 0 -82 27.5t-26 85.5q0 60 26 87.5t82 27.5q60 0 86 -27.5t26 -87.5q0 -58 -26.5 -85.5t-85.5 -27.5zM311 0v556l-307 965h260l168 -638
l180 638h234l-298 -965v-556h-237z" />
    <glyph glyph-name="alphatonos" unicode="&#x3ac;" horiz-adv-x="904" 
d="M407 1281l-21 274h201l-28 -274h-152zM395 -20q-168 0 -240 113q-59 94 -61 280v458q2 187 60 280q70 112 238 112q129 0 181 -134v113h231v-1202h-231v112q-48 -132 -178 -132zM450 204q59 0 89 46q23 34 30 97q4 57 4 131v296q-3 98 -17 142q-29 82 -106 82
q-58 0 -87 -36q-24 -29 -31 -80q-6 -62 -6 -171v-221q0 -144 17 -199q9 -36 31 -58q27 -29 76 -29z" />
    <glyph glyph-name="epsilontonos" unicode="&#x3ad;" horiz-adv-x="898" 
d="M376 1281l-21 274h201l-28 -274h-152zM452 -20q-207 0 -291 128q-68 101 -68 301v422q2 185 74 280q86 113 283 113q205 0 290 -121q66 -94 66 -279v-20h-231v24q0 78 -18 115q-29 57 -107 57t-105 -62q-19 -41 -19 -139v-96l330 6v-211l-330 2q0 -110 3 -165
q6 -59 28 -89q30 -40 93 -40q77 0 105 55q20 38 20 117v21h231v-19q0 -187 -65 -280q-85 -120 -289 -120z" />
    <glyph glyph-name="etatonos" unicode="&#x3ae;" horiz-adv-x="918" 
d="M394 1281l-21 274h201l-28 -274h-152zM586 -366v1165q0 99 -15 136q-27 63 -105 63q-76 0 -105 -76q-21 -54 -21 -153v-769h-232v1202h232v-120q26 60 82 99q59 41 128 41q166 0 226 -128q42 -92 42 -300v-1160h-232z" />
    <glyph glyph-name="iotatonos" unicode="&#x3af;" horiz-adv-x="446" 
d="M158 1301l-21 274h201l-28 -274h-152zM108 0v1202h232v-1202h-232z" />
    <glyph glyph-name="upsilondieresistonos" unicode="&#x3b0;" horiz-adv-x="896" 
d="M387 1397l-21 274h194l-28 -274h-145zM242 1287q-57 0 -83 27.5t-26 85.5q0 60 26 87.5t83 27.5q59 0 85 -27.5t26 -87.5q0 -58 -26 -85.5t-85 -27.5zM670 1287q-56 0 -82 27.5t-26 85.5q0 60 26 87.5t82 27.5q60 0 86 -27.5t26 -87.5q0 -58 -26.5 -85.5t-85.5 -27.5z
M460 -20q-207 0 -294 107q-73 90 -73 283v832h236v-829q0 -84 20 -117q28 -47 109 -47q76 1 103 48q19 34 19 116v829h236v-832q0 -190 -71 -281q-84 -108 -285 -109z" />
    <glyph glyph-name="alpha" unicode="&#x3b1;" horiz-adv-x="904" 
d="M395 -20q-168 0 -240 113q-59 94 -61 280v458q2 187 60 280q70 112 238 112q129 0 181 -134v113h231v-1202h-231v112q-48 -132 -178 -132zM450 204q59 0 89 46q23 34 30 97q4 57 4 131v296q-3 98 -17 142q-29 82 -106 82q-58 0 -87 -36q-24 -29 -31 -80q-6 -62 -6 -171
v-221q0 -144 17 -199q9 -36 31 -58q27 -29 76 -29z" />
    <glyph glyph-name="beta" unicode="&#x3b2;" horiz-adv-x="876" 
d="M94 -365v1516q0 199 77 292q82 99 266 99q179 0 262 -98q83 -101 83 -315q0 -165 -33 -241q-32 -74 -106 -103q91 -27 127 -118q33 -83 33 -238q0 -247 -85 -349q-83 -100 -275 -100h-25v230h25q63 0 91 36q33 42 33 138v135q0 82 -40 120q-34 31 -102 31h-94v-1035h-237
zM331 893h95q60 0 88 40q31 45 31 152v56q0 87 -20 125q-27 47 -93 47q-57 0 -81 -40q-20 -31 -20 -109v-271z" />
    <glyph glyph-name="gamma" unicode="&#x3b3;" horiz-adv-x="823" 
d="M292 -372v372h-41l-239 1203h239l161 -979l161 979h239l-239 -1203h-48v-372h-233z" />
    <glyph glyph-name="delta" unicode="&#x3b4;" horiz-adv-x="874" 
d="M440 -20q-208 0 -292 128q-68 101 -68 301v385q0 173 49 272q60 121 207 149l-131 159v194h588v-194h-308l1 -2q2 -2 7 -7.5t9 -10.5q21 -25 41 -46q72 -81 108 -120q24 -29 40 -46q9 -11 12.5 -15t2.5 -4q49 -56 70 -146q17 -79 17 -182v-386q0 -202 -65 -301
q-84 -128 -288 -128zM437 206q77 0 105 62q18 40 18 138v393q0 98 -17 138q-27 63 -106 63q-78 0 -105 -62q-19 -41 -19 -139v-394q0 -97 17 -136q27 -63 107 -63z" />
    <glyph glyph-name="epsilon" unicode="&#x3b5;" horiz-adv-x="898" 
d="M452 -20q-207 0 -291 128q-68 101 -68 301v422q2 185 74 280q86 113 283 113q205 0 290 -121q66 -94 66 -279v-20h-231v24q0 78 -18 115q-29 57 -107 57t-105 -62q-19 -41 -19 -139v-96l330 6v-211l-330 2q0 -110 3 -165q6 -59 28 -89q30 -40 93 -40q77 0 105 55
q20 38 20 117v21h231v-19q0 -187 -65 -280q-85 -120 -289 -120z" />
    <glyph glyph-name="zeta" unicode="&#x3b6;" horiz-adv-x="723" 
d="M475 -366l19 182q3 26 3 47q0 57 -28.5 85.5t-97.5 33.5v-1q-164 19 -253 95t-89 195q0 79 42 170l243 528h-303v233h542v-233l-249 -541q-24 -52 -24 -98q0 -54 34 -88.5t94 -41.5h2q1 -1 4 -1h7q2 0 4 -2q168 -22 242 -97q66 -67 66 -194q0 -42 -6 -90l-20 -182h-232z
" />
    <glyph glyph-name="eta" unicode="&#x3b7;" horiz-adv-x="918" 
d="M586 -366v1165q0 99 -15 136q-27 63 -105 63q-76 0 -105 -76q-21 -54 -21 -153v-769h-232v1202h232v-120q26 60 82 99q59 41 128 41q166 0 226 -128q42 -92 42 -300v-1160h-232z" />
    <glyph glyph-name="theta" unicode="&#x3b8;" horiz-adv-x="874" 
d="M434 -20q-206 0 -289 126q-65 96 -65 298v713q0 202 66 300q83 125 288 125q206 0 289 -126q64 -97 64 -298v-713q0 -202 -65 -300q-83 -125 -288 -125zM318 872h233v245q0 99 -15 136q-25 60 -102 60q-75 0 -100 -59q-16 -38 -16 -137v-245zM434 210q75 0 101 59
q16 38 16 136v237h-233v-237q0 -95 15 -134q23 -61 101 -61z" />
    <glyph glyph-name="iota" unicode="&#x3b9;" horiz-adv-x="446" 
d="M108 0v1202h232v-1202h-232z" />
    <glyph glyph-name="kappa" unicode="&#x3ba;" horiz-adv-x="885" 
d="M107 0v1201h232v-481h86l180 482h236l-242 -601l273 -601h-257l-193 491h-83v-491h-232z" />
    <glyph glyph-name="lambda" unicode="&#x3bb;" horiz-adv-x="826" 
d="M13 0l213 1203h160q-21 85 -69 136q-34 35 -96 66l102 163q102 -40 179 -139q84 -110 105 -255l4 -31l202 -1143h-239l-156 980h-16l-150 -980h-239z" />
    <glyph glyph-name="uni03BC" unicode="&#x3bc;" horiz-adv-x="922" 
d="M119 -365v1567h232v-770q0 -101 20 -153q27 -75 103 -75q79 0 106 63q17 39 17 136v799h233v-794q0 -203 -53 -300q-71 -128 -246 -128q-132 0 -180 137v-482h-232z" />
    <glyph glyph-name="nu" unicode="&#x3bd;" horiz-adv-x="818" 
d="M248 0l-239 1203h239l161 -979l161 979h239l-239 -1203h-322z" />
    <glyph glyph-name="xi" unicode="&#x3be;" horiz-adv-x="929" 
d="M534 -366l19 182q5 40 5 64q0 52 -25 76t-91 24h-3q-194 0 -275 98q-85 103 -85 346q0 153 40 241.5t131 115.5q-70 24 -107 97q-33 65 -33 165v71q0 202 66 301q85 127 288 127l1 1q204 0 290 -126q66 -98 66 -289v-41h-237v40q0 87 -18 128q-27 58 -101 58
q-76 0 -101 -62q-17 -39 -17 -138v-71q0 -86 25 -121q23 -33 83 -33h163v-222h-161q-68 0 -102 -31q-40 -38 -40 -121v-135q0 -96 38 -139q31 -38 96 -38q183 0 267 -86q75 -76 75 -219q0 -34 -5 -81l-21 -182h-231z" />
    <glyph glyph-name="omicron" unicode="&#x3bf;" horiz-adv-x="874" 
d="M440 -20q-208 0 -292 128q-68 101 -68 301v385q0 202 67 303q85 127 290 127t290 -129q66 -100 66 -300v-386q0 -202 -65 -301q-84 -128 -288 -128zM437 206q77 0 105 62q18 40 18 138v393q0 98 -17 138q-27 63 -106 63q-78 0 -105 -62q-19 -41 -19 -139v-394
q0 -97 17 -136q27 -63 107 -63z" />
    <glyph glyph-name="pi" unicode="&#x3c0;" horiz-adv-x="1116" 
d="M187 -1v978h-162v225h1033v-225h-160v-978h-231v978h-249v-978h-231z" />
    <glyph glyph-name="rho" unicode="&#x3c1;" horiz-adv-x="904" 
d="M107 -366v973h-1v187q0 202 67 303q85 127 290 127v-1q0 1 1 1q182 0 275 -129q80 -113 80 -300v-386q0 -205 -53 -301q-71 -128 -246 -128q-132 0 -181 136v-482h-232zM463 206q78 0 106 62q18 40 18 138v393q0 95 -18 138q-27 63 -106 63q-78 0 -105 -62
q-19 -41 -19 -139v-161h1v-206q0 -103 17 -150q28 -76 106 -76z" />
    <glyph glyph-name="uni03C2" unicode="&#x3c2;" horiz-adv-x="898" 
d="M544 -366l19 182q5 40 5 64q0 52 -25 76t-91 24q-2 0 -2 1h-3q-205 1 -288 129q-67 100 -67 299v312v55q0 36 1 55q2 185 74 280q86 113 282 113q205 0 290 -121q66 -94 66 -279v-20h-231v24q0 78 -18 115q-29 57 -107 57t-105 -62q-19 -41 -19 -139v-273q0 -128 3 -191
q5 -58 33 -91q34 -42 98 -42q183 0 267 -86q75 -76 75 -219q0 -34 -5 -81l-21 -182h-231z" />
    <glyph glyph-name="sigma" unicode="&#x3c3;" horiz-adv-x="874" 
d="M440 -20q-208 0 -292 128q-68 101 -68 301v385q0 202 67 303q85 127 290 127h414v-226l-115 23q57 -84 57 -261v-351q0 -202 -65 -301q-84 -128 -288 -128zM437 206q77 0 105 62q18 40 18 138v393q0 98 -17 138q-27 63 -106 63q-78 0 -105 -62q-19 -41 -19 -139v-394
q0 -97 17 -136q27 -63 107 -63z" />
    <glyph glyph-name="tau" unicode="&#x3c4;" horiz-adv-x="686" 
d="M229 -1v978h-222v225h673v-225h-221v-978h-230z" />
    <glyph glyph-name="upsilon" unicode="&#x3c5;" horiz-adv-x="896" 
d="M460 -20q-207 0 -294 107q-73 90 -73 283v832h236v-829q0 -84 20 -117q28 -47 109 -47q76 1 103 48q19 34 19 116v829h236v-832q0 -190 -71 -281q-84 -108 -285 -109z" />
    <glyph glyph-name="phi" unicode="&#x3c6;" horiz-adv-x="1097" 
d="M432 -366v347q-195 6 -276 133q-64 101 -64 295v385q0 198 64 298q80 126 276 131v345h232v-345q198 -4 278 -131q63 -100 63 -297v-386q0 -198 -63 -298q-79 -126 -278 -130v-347h-232zM432 206v793q-66 -5 -91 -67q-16 -39 -16 -133v-394q0 -91 15 -130q24 -62 92 -69z
M664 206q69 6 92 66q16 41 16 134v393q0 92 -15 132q-24 63 -93 68v-793z" />
    <glyph glyph-name="chi" unicode="&#x3c7;" horiz-adv-x="812" 
d="M11 0l250 625l-236 577h244l141 -373l150 373h226l-236 -577l251 -625h-243l-158 407l-162 -407h-227z" />
    <glyph glyph-name="psi" unicode="&#x3c8;" horiz-adv-x="1081" 
d="M422 -367v348q-187 10 -263 115q-66 92 -66 274v832h236v-829q0 -75 15 -107q19 -45 78 -55v1357h233v-1357q61 7 82 53q15 35 15 109v829h236v-832q0 -186 -66 -274q-79 -108 -267 -115v-348h-233z" />
    <glyph glyph-name="omega" unicode="&#x3c9;" horiz-adv-x="1358" 
d="M436 -20q-155 0 -239 81q-68 65 -90 187q-14 76 -14 212v272q0 241 97 359q101 125 315 131l1 -225q-84 -2 -133 -70t-49 -196v-276q0 -146 16 -189q22 -60 96 -60q84 0 110 74q17 50 17 203v296h231v-296q0 -153 18 -203q25 -74 109 -74q74 0 96 60q16 43 16 189v276
q0 128 -49 195.5t-133 69.5l1 225q214 -6 316 -130q97 -120 97 -359l-1 -272q0 -136 -14 -212q-22 -122 -90 -187q-84 -81 -239 -81q-156 0 -247 124q-90 -124 -238 -124z" />
    <glyph glyph-name="iotadieresis" unicode="&#x3ca;" horiz-adv-x="446" 
d="M89 1347q-57 0 -82.5 27.5t-25.5 85.5q0 60 25.5 87.5t82.5 27.5q59 0 85 -27t26 -88q0 -59 -26 -86t-85 -27zM353 1347q-56 0 -82 27.5t-26 85.5q0 60 26 87.5t82 27.5q60 0 86 -27.5t26 -87.5q0 -58 -26.5 -85.5t-85.5 -27.5zM108 0v1202h232v-1202h-232z" />
    <glyph glyph-name="upsilondieresis" unicode="&#x3cb;" horiz-adv-x="896" 
d="M322 1321q-57 0 -82.5 27.5t-25.5 85.5q0 60 25.5 87.5t82.5 27.5q59 0 85 -27t26 -88q0 -59 -26 -86t-85 -27zM586 1321q-56 0 -82 27.5t-26 85.5q0 60 26 87.5t82 27.5q60 0 86 -27.5t26 -87.5q0 -58 -26.5 -85.5t-85.5 -27.5zM460 -20q-207 0 -294 107q-73 90 -73 283
v832h236v-829q0 -84 20 -117q28 -47 109 -47q76 1 103 48q19 34 19 116v829h236v-832q0 -190 -71 -281q-84 -108 -285 -109z" />
    <glyph glyph-name="omicrontonos" unicode="&#x3cc;" horiz-adv-x="874" 
d="M342 1281l-21 274h221l-28 -274h-172zM440 -20q-208 0 -292 128q-68 101 -68 301v385q0 202 67 303q85 127 290 127t290 -129q66 -100 66 -300v-386q0 -202 -65 -301q-84 -128 -288 -128zM437 206q77 0 105 62q18 40 18 138v393q0 98 -17 138q-27 63 -106 63
q-78 0 -105 -62q-19 -41 -19 -139v-394q0 -97 17 -136q27 -63 107 -63z" />
    <glyph glyph-name="upsilontonos" unicode="&#x3cd;" horiz-adv-x="896" 
d="M372 1281l-23 274h221l-26 -274h-172zM460 -20q-207 0 -294 107q-73 90 -73 283v832h236v-829q0 -84 20 -117q28 -47 109 -47q76 1 103 48q19 34 19 116v829h236v-832q0 -190 -71 -281q-84 -108 -285 -109z" />
    <glyph glyph-name="omegatonos" unicode="&#x3ce;" horiz-adv-x="1343" 
d="M569 1281l-23 274h220l-25 -274h-172zM421 -20q-155 0 -239 81q-68 65 -90 187q-14 76 -14 212v272q0 241 97 359q101 125 315 131l1 -225q-84 -2 -133 -70t-49 -196v-276q0 -146 16 -189q22 -60 96 -60q84 0 110 74q17 50 17 203v296h231v-296q0 -153 18 -203
q25 -74 109 -74q74 0 96 60q16 43 16 189v276q0 128 -49 195.5t-133 69.5l1 225q214 -6 316 -130q97 -120 97 -359l-1 -272q0 -136 -14 -212q-22 -122 -90 -187q-84 -81 -239 -81q-156 0 -247 124q-90 -124 -238 -124z" />
    <glyph glyph-name="uni0401" unicode="&#x401;" horiz-adv-x="826" 
d="M293 1624q-57 0 -82.5 27.5t-25.5 85.5q0 60 25.5 87.5t82.5 27.5q59 0 85 -27t26 -88q0 -59 -26 -86t-85 -27zM557 1624q-56 0 -82 27.5t-26 85.5q0 60 26 87.5t82 27.5q60 0 86 -27.5t26 -87.5q0 -58 -26.5 -85.5t-85.5 -27.5zM114 0v1521h643v-230h-406v-402h337v-230
h-337v-430h406v-229h-643z" />
    <glyph glyph-name="uni0402" unicode="&#x402;" horiz-adv-x="1073" 
d="M681 -20q-35 0 -64 9l-3 217h10q77 0 105 62q18 40 18 138v320q0 97 -17 137q-27 63 -106 63q-72 0 -101 -66q-21 -49 -23 -139v-721h-238v1291h-250v230h737v-230h-249v-274q48 133 178 133q178 0 248 -128q54 -99 54 -301v-312q0 -205 -53 -301q-72 -128 -246 -128z
" />
    <glyph glyph-name="uni0403" unicode="&#x403;" horiz-adv-x="796" 
d="M333 1599l131 274h221l-180 -274h-172zM108 0v1521h625v-227h-388v-1294h-237z" />
    <glyph glyph-name="uni0404" unicode="&#x404;" horiz-adv-x="922" 
d="M461 -20q-207 0 -296 128q-72 104 -72 300v706q0 197 72 301q88 127 294 127l1 1q205 0 296 -126q72 -101 72 -289v-87h-237v86q0 84 -22 128q-30 58 -109 58q-77 0 -107 -62q-23 -47 -23 -138v-224h356v-230h-356v-250q0 -94 21 -137q30 -62 109 -62q74 0 107 56
q24 43 24 127v89h237v-90q0 -186 -73 -286q-90 -125 -293 -125q-1 0 -1 -1z" />
    <glyph glyph-name="uni0405" unicode="&#x405;" horiz-adv-x="906" 
d="M435 -20q-207 0 -293 104q-77 92 -77 294v104h236v-102q0 -91 26 -127q28 -43 105 -43q73 0 105 45q28 39 28 115v12q0 91 -21 140q-25 55 -90 97l-144 93q-144 94 -190 187q-42 83 -42 239v27q0 377 364 377q183 0 270 -94.5t87 -286.5v-120h-237l-1 133q0 64 -28 101
q-30 38 -94 38q-67 0 -97 -44q-29 -40 -27 -113l1 -29q1 -61 29.5 -113.5t81.5 -83.5l129 -76q138 -82 193 -189q49 -94 54 -246v-50q0 -192 -87 -288q-92 -101 -281 -101z" />
    <glyph glyph-name="uni0406" unicode="&#x406;" horiz-adv-x="473" 
d="M118 0v1521h237v-1521h-237z" />
    <glyph glyph-name="uni0407" unicode="&#x407;" horiz-adv-x="473" 
d="M98 1624q-57 0 -82.5 27.5t-25.5 85.5q0 60 25.5 87.5t82.5 27.5q59 0 85 -27t26 -88q0 -59 -26 -86t-85 -27zM362 1624q-56 0 -82 27.5t-26 85.5q0 60 26 87.5t82 27.5q60 0 86 -27.5t26 -87.5q0 -58 -26.5 -85.5t-85.5 -27.5zM118 0v1521h237v-1521h-237z" />
    <glyph glyph-name="uni0408" unicode="&#x408;" horiz-adv-x="666" 
d="M198 -17q-118 0 -190 57l67 203q24 -17 48 -23q30 -8 75 -8q71 0 97 39q25 36 25 129v1141h236v-1148q0 -192 -71 -283q-83 -107 -287 -107z" />
    <glyph glyph-name="uni0409" unicode="&#x409;" horiz-adv-x="1471" 
d="M11 -20v230q69 0 95 51q22 44 22 144v1116h768v-524h107q186 0 274 -80q100 -92 100 -301v-243q0 -199 -101 -291q-92 -82 -268 -82h-349v1291h-294v-886q0 -220 -75 -317q-82 -108 -279 -108zM896 231h113q71 0 100.5 35t29.5 107v243q0 84 -31 118.5t-109 34.5h-103
v-538z" />
    <glyph glyph-name="uni040A" unicode="&#x40a;" horiz-adv-x="1435" 
d="M106 0v1521h238v-541h280v541h238v-541h106q185 0 274 -79q100 -91 100 -301v-227q0 -199 -101 -291q-92 -82 -268 -82h-349v752h-280v-752h-238zM862 231h111q71 0 101 35t30 107v227q0 83 -31.5 117.5t-108.5 34.5h-102v-521z" />
    <glyph glyph-name="uni040B" unicode="&#x40b;" horiz-adv-x="1075" 
d="M261 0v1291h-249v230h736v-230h-249v-390q48 137 184 137q175 0 246 -128q53 -97 53 -300v-610h-237v615q0 97 -17 136q-27 63 -106 63q-71 0 -100 -66q-21 -50 -23 -140v-608h-238z" />
    <glyph glyph-name="uni040C" unicode="&#x40c;" horiz-adv-x="934" 
d="M404 1600l131 274h221l-180 -274h-172zM117 0v1521h237v-639h87l223 639h253l-254 -743l274 -778h-253l-236 652h-94v-652h-237z" />
    <glyph glyph-name="uni040E" unicode="&#x40e;" horiz-adv-x="865" 
d="M438 1601q-147 0 -216 79q-62 68 -64 188h134q7 -69 30 -96q32 -38 116 -38q80 0 113 36q24 28 31 98h134q-2 -120 -65 -189q-71 -78 -213 -78zM165 0l152 526l-309 995h259l167 -661l181 661h233l-292 -970l-159 -551h-232z" />
    <glyph glyph-name="uni0410" unicode="&#x410;" horiz-adv-x="884" 
d="M8 0l260 1522h320l260 -1522h-240l-39 269h-284l-38 -269h-239zM317 486h221l-110 770z" />
    <glyph glyph-name="uni0411" unicode="&#x411;" horiz-adv-x="937" 
d="M117 0v1521h626v-227h-389v-297h107q187 0 275 -80q100 -92 100 -301v-243q0 -199 -101 -291q-92 -82 -269 -82h-349zM354 231h113q71 0 101 35t30 107v243q0 84 -31.5 118.5t-108.5 34.5h-104v-538z" />
    <glyph glyph-name="uni0412" unicode="&#x412;" horiz-adv-x="937" 
d="M117 1v1520h362q180 0 271 -91q87 -88 87 -255v-89q0 -121 -33.5 -190.5t-107.5 -90.5q73 -20 115 -90t42 -176v-148q0 -206 -91 -300q-87 -90 -278 -90h-367zM354 903h101q80 0 115 39q32 37 30 122l-1 92q0 69 -29 107q-31 40 -98 40h-118v-400zM354 230h128
q70 0 101 31q34 34 33 126v152q0 65 -33 105q-35 43 -102 43h-127v-457z" />
    <glyph glyph-name="uni0413" unicode="&#x413;" horiz-adv-x="813" 
d="M108 0v1525h639v-230h-402v-1295h-237z" />
    <glyph glyph-name="uni0414" unicode="&#x414;" horiz-adv-x="1086" 
d="M11 -175v405h24q32 0 58 47q45 87 71 292q21 164 28 374q3 89 3 150v429l742 -1v-1291h136v-405h-237v175h-587v-175h-238zM296 230h403v1061h-267l1 -198q0 -369 -22 -537q-30 -227 -115 -326z" />
    <glyph glyph-name="uni0415" unicode="&#x415;" horiz-adv-x="826" 
d="M114 0v1521h643v-230h-406v-402h337v-230h-337v-430h406v-229h-643z" />
    <glyph glyph-name="uni0416" unicode="&#x416;" horiz-adv-x="1427" 
d="M13 0l279 778l-260 743h254l221 -639h89v639h237v-639h88l222 639h253l-261 -743l281 -778h-254l-234 651v1h-95v-652h-237v652h-97l1 -1l-234 -651h-253z" />
    <glyph glyph-name="uni0417" unicode="&#x417;" horiz-adv-x="885" 
d="M443 -20q-172 0 -261 90q-97 99 -97 299v91h236v-105q0 -69 32.5 -107t89.5 -38q63 0 91 36q33 42 33 138v135q0 82 -38 120q-34 31 -101 31l-85 2v218l93 3q60 0 88 40q31 45 31 152v56q0 87 -20 125q-27 47 -94 47q-60 0 -85 -38t-25 -111v-103h-238v90q0 198 82 292
q87 99 272 99q179 0 262 -98q83 -101 83 -315q0 -162 -36 -241q-33 -73 -110 -103q90 -27 126 -118q31 -81 31 -238q0 -247 -85 -349q-83 -100 -275 -100z" />
    <glyph glyph-name="uni0418" unicode="&#x418;" horiz-adv-x="990" 
d="M116 0l3 1521h237l-8 -976l271 976h297v-1521h-238l9 1000l-294 -1000h-277z" />
    <glyph glyph-name="uni0419" unicode="&#x419;" horiz-adv-x="990" 
d="M556 1601q-146 0 -215 79q-62 68 -64 188h134q7 -69 30 -96q32 -38 115 -38q80 0 113 36q25 29 32 98h134q-5 -123 -65 -189q-72 -78 -214 -78zM116 0l3 1521h237l-8 -975l271 975h297v-1521h-238l8 1001l-293 -1001h-277z" />
    <glyph glyph-name="uni041A" unicode="&#x41a;" horiz-adv-x="934" 
d="M117 0v1521h237v-639h87l223 639h253l-254 -743l274 -778h-253l-236 652h-94v-652h-237z" />
    <glyph glyph-name="uni041B" unicode="&#x41b;" horiz-adv-x="993" 
d="M12 -20v230q69 0 95 51q22 44 22 144v1116h756v-1521h-238v1291h-282v-886q0 -220 -75 -317q-82 -108 -278 -108z" />
    <glyph glyph-name="uni041C" unicode="&#x41c;" horiz-adv-x="1246" 
d="M118 0v1521h307l200 -924l201 924h306v-1521h-238l24 1098l-190 -908h-205l-192 923l24 -1113h-237z" />
    <glyph glyph-name="uni041D" unicode="&#x41d;" horiz-adv-x="990" 
d="M117 0v1521h238v-639h281v639h237v-1521h-237v652h-281v-652h-238z" />
    <glyph glyph-name="uni041E" unicode="&#x41e;" horiz-adv-x="899" 
d="M449 -20q-206 0 -296 128q-72 102 -72 300v706q0 199 73 301q90 127 295 127v-1q0 1 1 1q208 0 296 -127q71 -103 71 -301v-706q0 -199 -72 -301q-90 -127 -295 -127l-1 1v-1zM453 209q76 1 106 63q21 42 21 137v704q0 96 -20 137q-30 62 -110 62q-4 0 -5 1
q-76 -1 -105 -62q-21 -46 -21 -138v-704q0 -94 21 -137q30 -62 109 -62h2q1 -1 2 -1z" />
    <glyph glyph-name="uni041F" unicode="&#x41f;" horiz-adv-x="968" 
d="M107 0v1521h755v-1521h-237v1291h-281v-1291h-237z" />
    <glyph glyph-name="uni0420" unicode="&#x420;" horiz-adv-x="901" 
d="M107 0v1521h349q178 0 269 -81q101 -92 101 -291v-244q0 -209 -100 -301q-88 -80 -275 -80h-107v-524h-237zM344 752h104q77 0 108.5 34.5t31.5 118.5v244q0 72 -30 107t-101 35h-113v-539z" />
    <glyph glyph-name="uni0421" unicode="&#x421;" horiz-adv-x="891" 
d="M452 -20q-207 0 -296 128q-72 104 -72 300v706q0 197 72 301q88 127 294 127l1 1q205 0 296 -126q72 -101 72 -289v-87h-238v86q0 83 -22 127q-30 59 -107 59t-109 -61q-22 -43 -22 -139v-704q0 -94 21 -137q30 -62 109 -62q75 0 106 56q24 43 24 127v89h238v-90
q0 -186 -73 -286q-90 -125 -293 -125q-1 0 -1 -1z" />
    <glyph glyph-name="uni0422" unicode="&#x422;" horiz-adv-x="759" 
d="M260 0v1291h-249v230h736v-230h-249v-1291h-238z" />
    <glyph glyph-name="uni0423" unicode="&#x423;" horiz-adv-x="862" 
d="M168 0l152 526l-309 995h259l167 -661l181 661h233l-292 -970l-159 -551h-232z" />
    <glyph glyph-name="uni0424" unicode="&#x424;" horiz-adv-x="1159" 
d="M461 0v120q-208 0 -296 126q-72 103 -72 298v433q0 199 72 300q89 125 296 125v119h237v-119q209 0 297 -126q71 -101 71 -298v-434q0 -198 -72 -299q-89 -125 -296 -125v-120h-237zM461 350v823q-79 0 -108 -59q-23 -46 -23 -137v-432q0 -92 21 -134q30 -61 110 -61z
M698 349q80 0 109 59q21 42 21 137v432q0 94 -20 135q-30 60 -110 60v-823z" />
    <glyph glyph-name="uni0425" unicode="&#x425;" horiz-adv-x="917" 
d="M11 0l287 788l-263 733h260l166 -491l163 491h259l-270 -734l291 -787h-264l-188 547l-178 -547h-263z" />
    <glyph glyph-name="uni0426" unicode="&#x426;" horiz-adv-x="1011" 
d="M761 -175v175h-653v1521h237v-1291h281v1291h237v-1291h135v-405h-237z" />
    <glyph glyph-name="uni0427" unicode="&#x427;" horiz-adv-x="969" 
d="M626 0v561q-49 -137 -183 -137q-180 0 -263 128q-72 109 -72 300v670h237v-675q0 -87 28 -136q36 -63 117 -63q75 0 110 76q26 57 26 154v644h237v-1522h-237z" />
    <glyph glyph-name="uni0428" unicode="&#x428;" horiz-adv-x="1279" 
d="M109 0v1518h237v-1288h181v1278h237v-1278h171v1288h237v-1518h-1063z" />
    <glyph glyph-name="uni0429" unicode="&#x429;" horiz-adv-x="1389" 
d="M1104 -175v175h-996v1518h237v-1288h181v1278h237v-1278h171v1288h237v-1293h164v-400h-231z" />
    <glyph glyph-name="uni042A" unicode="&#x42a;" horiz-adv-x="979" 
d="M153 0v1291h-141v230h378v-524h107q186 0 274 -80q100 -92 100 -301v-243q0 -199 -101 -291q-92 -82 -268 -82h-349zM390 231h113q71 0 100.5 35t29.5 107v243q0 84 -31 118.5t-108 34.5h-104v-538z" />
    <glyph glyph-name="uni042B" unicode="&#x42b;" horiz-adv-x="1332" 
d="M108 0v1521h237v-524h106q187 0 275 -80q100 -92 100 -301v-243q0 -199 -101 -291q-92 -82 -269 -82h-348zM992 0v1521h237v-1521h-237zM345 231h112q71 0 101 35t30 107v243q0 84 -31.5 118.5t-108.5 34.5h-103v-538z" />
    <glyph glyph-name="uni042C" unicode="&#x42c;" horiz-adv-x="923" 
d="M107 0v1521h237v-524h107q187 0 275 -80q100 -92 100 -301v-244q0 -198 -101 -290q-92 -82 -269 -82h-349zM344 230h113q71 0 101 35t30 107v244q0 84 -31.5 118.5t-108.5 34.5h-104v-539z" />
    <glyph glyph-name="uni042D" unicode="&#x42d;" horiz-adv-x="922" 
d="M428 -20q0 1 -1 1q-203 0 -293 125q-73 100 -73 286v90h237v-89q0 -84 24 -127q31 -56 107 -56q80 0 110 62q20 41 20 137v250h-356v230h356v224q0 93 -22 138q-30 62 -108 62t-108 -58q-23 -46 -23 -128v-86h-237v87q0 188 72 289q91 126 296 126l1 -1q207 0 295 -127
q71 -103 71 -301v-706q0 -197 -71 -300q-89 -128 -297 -128z" />
    <glyph glyph-name="uni042E" unicode="&#x42e;" horiz-adv-x="1365" 
d="M897 -20q-207 0 -296 128q-72 104 -72 300v234h-185v-642h-237v1521h237v-649h185v242q0 199 72 301q90 127 296 127q209 0 297 -127q71 -103 71 -301v-706q0 -199 -72 -301q-90 -127 -296 -127zM901 209q76 1 106 63q21 42 21 137v704q0 96 -20 137q-30 62 -111 62
q-4 0 -5 1q-76 -1 -105 -63q-21 -46 -21 -137v-704q0 -94 21 -137q30 -62 110 -62h2q1 -1 2 -1z" />
    <glyph glyph-name="uni042F" unicode="&#x42f;" horiz-adv-x="883" 
d="M-33 0q50 102 57 185l17 210q11 122 37 176q26 56 86 98q-154 113 -154 297v164q0 206 91 301q86 90 278 90h366v-1521h-237v588h-81q-56 2 -93 -41q-47 -54 -54 -157l-18 -212q-6 -55 -23 -111q-10 -31 -26 -67h-246zM382 818h126v473h-128q-69 0 -99 -31
q-34 -35 -34 -127v-167q0 -63 34 -105q35 -43 101 -43z" />
    <glyph glyph-name="uni0430" unicode="&#x430;" horiz-adv-x="904" 
d="M383 -20q-170 0 -242 109q-61 92 -61 273q0 175 54 248q66 89 246 89q110 0 187 -27v127q0 97 -18 139q-28 62 -105 62q-72 0 -101 -57q-20 -39 -20 -115v-24h-232v20q0 184 67 279q85 121 284 121q198 0 284 -113q73 -96 73 -280v-831h-231v122q-52 -142 -185 -142z
M438 204q72 0 104 65q25 50 25 133v72q-52 32 -133 32q-76 0 -103 -47q-19 -31 -19 -102q0 -72 24 -107q31 -46 102 -46z" />
    <glyph glyph-name="uni0431" unicode="&#x431;" horiz-adv-x="898" 
d="M454 -20q-208 0 -292 128q-68 101 -68 301v485q0 289 79 443q89 172 282 178q92 1 151 24q23 8 56 32l182 -1q-18 -87 -34 -118q-29 -59 -93 -86q-78 -34 -215 -34q-92 0 -136 -65q-36 -55 -43 -159q82 116 202 116q177 0 239 -129q43 -89 43 -300v-386q0 -218 -62 -311
q-78 -117 -291 -118zM451 206q77 0 105 62q18 40 18 138v393q0 98 -17 138q-27 63 -106 63q-90 0 -113 -100q-11 -44 -11 -122v-373q0 -97 17 -136q27 -63 107 -63z" />
    <glyph glyph-name="uni0432" unicode="&#x432;" horiz-adv-x="898" 
d="M106 0v1202h324q185 0 274.5 -86t89.5 -264v-7q0 -154 -123 -233q136 -80 136 -249v-7q0 -182 -86.5 -269t-270.5 -87h-344zM337 716h89q69 0 99.5 31t30.5 98v10q0 66 -32.5 95t-95.5 29h-91v-263zM337 223h111q128 0 128 130v10q0 68 -32.5 105.5t-97.5 37.5h-109v-283
z" />
    <glyph glyph-name="uni0433" unicode="&#x433;" horiz-adv-x="694" 
d="M100 0v1202h590v-231h-357v-971h-233z" />
    <glyph glyph-name="uni0434" unicode="&#x434;" horiz-adv-x="1018" 
d="M13 -175v400h9q33 0 65 41q64 87 90 341q13 126 13 308v288l673 -1v-977h142v-400h-232v175h-529v-175h-231zM286 225h346v752h-211v-93q0 -253 -26 -397q-32 -178 -109 -262z" />
    <glyph glyph-name="uni0435" unicode="&#x435;" horiz-adv-x="873" 
d="M441 -20q-209 0 -293 128q-67 102 -67 301v385q0 202 67 303q85 127 290 127t290 -122q66 -95 66 -284v-249l-483 -92v-70q0 -95 19 -137q29 -64 108 -64q78 0 106 55q19 38 19 120v25h231v-23q0 -191 -65 -284q-83 -119 -288 -119zM311 679l252 52v90q0 82 -18 121
q-28 58 -107 58t-107 -62q-20 -45 -20 -141v-118z" />
    <glyph glyph-name="uni0436" unicode="&#x436;" horiz-adv-x="1229" 
d="M13 0l273 601l-242 601h236l179 -482h39v481h232v-481h41l179 482h236l-242 -601l274 -601h-258l-192 491h-38v-491h-232v491h-35l-193 -491h-257z" />
    <glyph glyph-name="uni0437" unicode="&#x437;" horiz-adv-x="853" 
d="M419 -20q-171 0 -260 90q-96 98 -96 298v38h236v-52q0 -70 31.5 -107.5t88.5 -37.5q125 0 125 160q0 137 -137 137l-166 -1v197l165 1q64 1 101 35t37 93v14q0 149 -125 149q-57 0 -88.5 -37.5t-31.5 -107.5v-52h-236v38q0 200 96 299q87 90 260 90q187 0 274.5 -96
t87.5 -287q0 -96 -53 -169q-38 -52 -86 -73q63 -12 102 -88q37 -72 37 -166q0 -169 -86 -262q-93 -103 -276 -103z" />
    <glyph glyph-name="uni0438" unicode="&#x438;" horiz-adv-x="933" 
d="M107 0v1202h237v-657l228 657l198 1v-1h63l-3 -1202h-237v673l-225 -673h-261z" />
    <glyph glyph-name="uni0439" unicode="&#x439;" horiz-adv-x="933" 
d="M483 1281q-146 0 -215 79q-62 68 -64 188h134q7 -69 30 -96q32 -38 115 -38q80 0 113 36q25 29 32 98h134q-5 -123 -65 -189q-71 -78 -214 -78zM107 0v1202h237v-658l228 658l198 1l-1 -1h64l-3 -1202h-237v673l-225 -673h-261z" />
    <glyph glyph-name="uni043A" unicode="&#x43a;" horiz-adv-x="883" 
d="M106 0v1201h232v-481h86l180 482h236l-242 -601l273 -601h-257l-193 491h-83v-491h-232z" />
    <glyph glyph-name="uni043B" unicode="&#x43b;" horiz-adv-x="979" 
d="M12 -20v224q69 0 95 51q22 45 22 145v803l750 -1v-1202h-232v977h-287v-572q0 -216 -78 -317q-84 -108 -270 -108z" />
    <glyph glyph-name="uni043C" unicode="&#x43c;" horiz-adv-x="1192" 
d="M111 0v1204h308l178 -662h6l180 662h308v-1204h-236l8 868l-164 -657h-198l-162 655l9 -866h-237z" />
    <glyph glyph-name="uni043D" unicode="&#x43d;" horiz-adv-x="933" 
d="M107 0v1202h233v-492h254v492h232v-1202h-232v480h-254v-480h-233z" />
    <glyph glyph-name="uni043E" unicode="&#x43e;" horiz-adv-x="874" 
d="M440 -20q-208 0 -292 128q-68 101 -68 301v385q0 202 67 303q85 127 290 127t290 -129q66 -100 66 -300v-386q0 -202 -65 -301q-84 -128 -288 -128zM437 206q77 0 105 62q18 40 18 138v393q0 98 -17 138q-27 63 -106 63q-78 0 -105 -62q-19 -41 -19 -139v-394
q0 -97 17 -136q27 -63 107 -63z" />
    <glyph glyph-name="uni043F" unicode="&#x43f;" horiz-adv-x="933" 
d="M107 0v1202h719v-1202h-232v977h-253v-977h-234z" />
    <glyph glyph-name="uni0440" unicode="&#x440;" horiz-adv-x="904" 
d="M107 -366v1568h232v-113q48 135 179 135q177 0 247 -129q54 -99 54 -300v-386q0 -205 -53 -301q-71 -128 -246 -128q-132 0 -181 136v-482h-232zM463 206q78 0 106 62q18 40 18 138v393q0 95 -18 138q-27 63 -106 63q-77 0 -104 -75q-19 -49 -19 -153v-340
q0 -103 17 -150q28 -76 106 -76z" />
    <glyph glyph-name="uni0441" unicode="&#x441;" 
d="M441 -20q-208 0 -292 128q-67 102 -67 301v422q2 185 74 280q86 113 283 113q205 0 290 -121q66 -94 66 -279v-20h-231v24q0 78 -18 115q-29 57 -107 57t-105 -62q-19 -41 -19 -139v-273v-96q0 -33 2 -95q5 -58 29 -89q30 -40 93 -40q77 0 105 55q20 38 20 117v21h231
v-19q0 -187 -65 -280q-85 -120 -289 -120z" />
    <glyph glyph-name="uni0442" unicode="&#x442;" horiz-adv-x="676" 
d="M224 0v977h-216v225h660v-225h-214v-977h-230z" />
    <glyph glyph-name="uni0443" unicode="&#x443;" horiz-adv-x="807" 
d="M277 -452l-102 164q69 32 110 76q57 61 72 163l7 49h-131l-239 1203h239l161 -979l4 28l5 32h1l151 919h239l-183 -921l-50 -340q-21 -145 -105 -255q-77 -99 -179 -139z" />
    <glyph glyph-name="uni0444" unicode="&#x444;" horiz-adv-x="1328" 
d="M548 -369v431q-51 -82 -155 -82q-175 0 -246 128q-53 96 -53 301v386q0 203 54 300q70 129 247 129q102 0 153 -72v370h232v-370q51 72 153 72q178 0 248 -129q54 -99 54 -300v-386q0 -205 -53 -301q-72 -128 -246 -128q-104 0 -156 83v-432h-232zM450 206q67 0 98 45
v688q-32 61 -98 61q-80 0 -107 -63q-17 -40 -17 -138v-393q0 -98 19 -138q27 -62 105 -62zM879 206q77 0 105 62q18 40 18 138v393q0 98 -17 138q-27 63 -106 63q-71 0 -99 -62v-687q27 -45 99 -45z" />
    <glyph glyph-name="uni0445" unicode="&#x445;" horiz-adv-x="818" 
d="M16 0l250 625l-236 577h244l141 -373l150 373h226l-236 -577l251 -625h-243l-158 407l-162 -407h-227z" />
    <glyph glyph-name="uni0446" unicode="&#x446;" horiz-adv-x="1025" 
d="M741 -175v175h-633v1202h237v-977h249v977h237v-977h141v-400h-231z" />
    <glyph glyph-name="uni0447" unicode="&#x447;" horiz-adv-x="926" 
d="M586 0v482q-46 -137 -180 -137q-175 0 -245 128q-53 97 -53 300v429h232v-434q0 -97 17 -136q27 -63 107 -63q74 0 103 76q19 52 19 153v404h232v-1202h-232z" />
    <glyph glyph-name="uni0448" unicode="&#x448;" horiz-adv-x="1277" 
d="M106 0v1202h237v-977h180v967h238v-967h170v977h237v-1202h-1062z" />
    <glyph glyph-name="uni0449" unicode="&#x449;" horiz-adv-x="1331" 
d="M1072 -175v175h-964v1202h237v-977h181v967h237v-967h171v977h237v-977h132v-400h-231z" />
    <glyph glyph-name="uni044A" unicode="&#x44a;" horiz-adv-x="988" 
d="M178 0v986h-166v216h403v-359h106q187 0 275 -80q100 -92 100 -301v-89q0 -199 -101 -291q-92 -82 -269 -82h-348zM415 231h112q71 0 101 35t30 107v89q0 84 -31.5 118.5t-108.5 34.5h-103v-384z" />
    <glyph glyph-name="uni044B" unicode="&#x44b;" horiz-adv-x="1343" 
d="M107 0v1202h237v-359h107q186 0 274 -80q100 -92 100 -301v-89q0 -199 -101 -291q-92 -82 -268 -82h-349zM1004 0v1202h232v-1202h-232zM344 231h112q71 0 101 35t30 107v89q0 84 -31 118.5t-109 34.5h-103v-384z" />
    <glyph glyph-name="uni044C" unicode="&#x44c;" horiz-adv-x="896" 
d="M101 0v1202h237v-359h107q187 0 274 -80q100 -92 100 -301v-89q0 -199 -101 -291q-90 -82 -268 -82h-349zM338 231h113q71 0 100.5 35t29.5 107v89q0 84 -31 118.5t-108 34.5h-104v-384z" />
    <glyph glyph-name="uni044D" unicode="&#x44d;" horiz-adv-x="870" 
d="M427 -20q-204 0 -288 120q-66 93 -66 280v19h231v-21q0 -79 20 -117q27 -55 105 -55q64 0 94 40q21 28 27 89q3 55 3 165l-330 -2v211l330 -6v96q0 97 -18 139q-28 62 -106 62t-106 -57q-19 -37 -19 -115v-24h-231v20q0 185 66 279q85 121 290 121q198 0 284 -113
q71 -94 73 -280v-422q0 -199 -67 -301q-86 -128 -292 -128z" />
    <glyph glyph-name="uni044E" unicode="&#x44e;" horiz-adv-x="1300" 
d="M869 -20q-208 0 -292 128q-68 101 -68 301v65h-177v-474h-233v1202h233v-521h177v113q0 202 67 303q85 127 290 127t290 -129q66 -100 66 -300v-386q0 -202 -65 -301q-84 -128 -288 -128zM866 206q77 0 105 62q18 40 18 138v393q0 98 -17 138q-27 63 -106 63
q-78 0 -105 -62q-19 -41 -19 -139v-394q0 -97 17 -136q27 -63 107 -63z" />
    <glyph glyph-name="uni044F" unicode="&#x44f;" horiz-adv-x="863" 
d="M26 0q19 39 28 68q13 40 20 93l11 91q17 122 40 170q24 48 82 84q-69 50 -109 124t-40 164v52q0 181 87.5 268.5t270.5 87.5h343v-1202h-231v428h-74q-57 -7 -84 -36q-37 -38 -52 -146l-13 -92q-11 -80 -40 -154h-239zM419 651h109v328h-110q-66 0 -97.5 -31t-31.5 -99
v-55q2 -143 130 -143z" />
    <glyph glyph-name="uni0451" unicode="&#x451;" horiz-adv-x="873" 
d="M304 1305q-57 0 -82.5 27.5t-25.5 85.5q0 60 25.5 87.5t82.5 27.5q59 0 85 -27t26 -88q0 -59 -26 -86t-85 -27zM568 1305q-56 0 -82 27.5t-26 85.5q0 60 26 87.5t82 27.5q60 0 86 -27.5t26 -87.5q0 -58 -26.5 -85.5t-85.5 -27.5zM441 -20q-209 0 -293 128
q-67 102 -67 301v385q0 202 67 303q85 127 290 127t290 -122q66 -95 66 -284v-249l-483 -92v-70q0 -95 19 -137q29 -64 108 -64q78 0 106 55q19 38 19 120v25h231v-23q0 -191 -65 -284q-83 -119 -288 -119zM311 679l252 52v90q0 82 -18 121q-28 58 -107 58t-107 -62
q-20 -45 -20 -141v-118z" />
    <glyph glyph-name="uni0452" unicode="&#x452;" horiz-adv-x="904" 
d="M441 -423q-119 0 -191 57l68 203q24 -17 48 -23q30 -8 75 -8q71 0 99 39q26 37 26 129v828q0 97 -17 136q-27 63 -107 63q-74 0 -103 -76q-20 -52 -20 -153v-772h-232v1291h-75v176h75v103h232v-103h83v-176h-83v-203q48 137 181 137q175 0 245 -128q53 -97 53 -300v-830
q0 -192 -71 -283q-83 -107 -286 -107z" />
    <glyph glyph-name="uni0453" unicode="&#x453;" horiz-adv-x="767" 
d="M265 1297l131 274h221l-180 -274h-172zM95 0v1202h590v-231h-358v-971h-232z" />
    <glyph glyph-name="uni0454" unicode="&#x454;" horiz-adv-x="897" 
d="M452 -20q-207 0 -291 128q-68 101 -68 301v422q2 185 74 280q86 113 283 113q205 0 290 -121q66 -94 66 -279v-20h-231v24q0 78 -18 115q-29 57 -107 57t-105 -62q-19 -41 -19 -139v-96l330 6v-211l-330 2q0 -110 3 -165q6 -59 28 -89q30 -40 93 -40q77 0 105 55
q20 38 20 117v21h231v-19q0 -187 -65 -280q-85 -120 -289 -120z" />
    <glyph glyph-name="uni0455" unicode="&#x455;" 
d="M433 -20q-195 0 -281 111q-74 96 -74 293h233q0 -82 24 -125q29 -53 95 -53q56 0 85 34q25 29 25 81q0 66 -70 123q-29 24 -72 49q-129 78 -165 105q-86 65 -122 153q-20 48 -20 109q0 185 77 270q85 94 270 94q165 0 245 -77q92 -90 92 -307l-233 1q0 70 -19 108
q-25 51 -85 51q-55 0 -86 -36q-26 -30 -26 -77q0 -42 30.5 -75.5t88.5 -70.5q40 -25 110 -66q135 -77 195 -182q34 -58 34 -142q0 -179 -77 -269q-88 -102 -274 -102z" />
    <glyph glyph-name="uni0456" unicode="&#x456;" horiz-adv-x="446" 
d="M222 1346q-70 0 -103 28t-33 88t33 88t103 28q74 0 106.5 -27.5t32.5 -88.5t-32.5 -88.5t-106.5 -27.5zM108 0v1202h232v-1202h-232z" />
    <glyph glyph-name="uni0457" unicode="&#x457;" horiz-adv-x="446" 
d="M99 1343q-57 0 -82.5 27.5t-25.5 85.5q0 60 25.5 87.5t82.5 27.5q59 0 85 -27t26 -88q0 -59 -26 -86t-85 -27zM363 1343q-56 0 -82 27.5t-26 85.5q0 60 26 87.5t82 27.5q60 0 86 -27.5t26 -87.5q0 -58 -26.5 -85.5t-85.5 -27.5zM108 0v1202h232v-1202h-232z" />
    <glyph glyph-name="uni0458" unicode="&#x458;" horiz-adv-x="449" 
d="M221 1346q-70 0 -103 28t-33 88t33 88t103 28q74 0 106.5 -27.5t32.5 -88.5t-32.5 -88.5t-106.5 -27.5zM52 -407q-117 0 -207 67l15 195q25 -15 58 -26q44 -16 97 -16q58 0 76 41q16 34 16 137v1211h234v-1211q0 -200 -53 -289q-65 -109 -236 -109z" />
    <glyph glyph-name="uni0459" unicode="&#x459;" horiz-adv-x="1401" 
d="M73 -20v230q69 0 95 51q22 44 22 144v797h680v-359h106q187 0 275 -80q100 -92 100 -301v-89q0 -199 -101 -291q-92 -82 -268 -82h-349v977h-206v-572q0 -220 -75 -317q-82 -108 -279 -108zM870 231h112q71 0 101 35t30 107v89q0 84 -31.5 118.5t-108.5 34.5h-103v-384z
" />
    <glyph glyph-name="uni045A" unicode="&#x45a;" horiz-adv-x="1399" 
d="M107 0v1202h232v-406h254v406h231v-406h108q186 0 275 -79q100 -91 100 -301v-43q0 -199 -101 -291q-92 -82 -269 -82h-344v568h-254v-568h-232zM823 231h115q71 0 101 35t30 107v43q0 82 -31.5 117t-108.5 35h-105z" />
    <glyph glyph-name="uni045B" unicode="&#x45b;" horiz-adv-x="905" 
d="M87 0v904h-75v182h75v116h232v-116h83v-182h-83v-184q48 137 181 137q175 0 245 -128q53 -97 53 -300v-429h-232v434q0 97 -17 136q-27 63 -107 63q-74 0 -103 -76q-20 -52 -20 -153v-404h-232z" />
    <glyph glyph-name="uni045C" unicode="&#x45c;" horiz-adv-x="867" 
d="M353 1281l131 274h221l-180 -274h-172zM96 0v1201h232v-481h86l180 482h236l-242 -601l273 -601h-257l-193 491h-83v-491h-232z" />
    <glyph glyph-name="uni045E" unicode="&#x45e;" horiz-adv-x="752" 
d="M392 1287q-147 0 -216 79q-62 68 -64 188h134q7 -69 30 -96q32 -38 116 -38q80 0 113 36q24 28 31 98h134q-2 -120 -65 -189q-71 -78 -213 -78zM263 0v449l-251 753h229l142 -507l146 507h213l-243 -753v-449h-236z" />
    <glyph glyph-name="uni0474" unicode="&#x474;" horiz-adv-x="7" 
 />
    <glyph glyph-name="uni0490" unicode="&#x490;" horiz-adv-x="875" 
d="M108 0v1522h441v177h230v-407h-434v-1292h-237z" />
    <glyph glyph-name="uni0491" unicode="&#x491;" horiz-adv-x="823" 
d="M108 0v1202h397v169l229 -2v-392h-395v-977h-231z" />
    <glyph glyph-name="uni04D9" unicode="&#x4d9;" horiz-adv-x="896" 
d="M445 -20q-205 0 -290 122q-66 95 -66 284v249l483 92v70q0 96 -19 138q-28 63 -108 63q-78 0 -105 -54q-20 -39 -20 -121v-25h-231v23q0 191 65 284q83 119 288 119q209 0 293 -128q67 -102 67 -301v-385q0 -202 -67 -302q-85 -128 -290 -128zM445 204q79 0 107 63
q20 45 20 140v118l-252 -52v-90q0 -82 19 -121q27 -58 106 -58z" />
    <glyph glyph-name="Wgrave" unicode="&#x1e80;" horiz-adv-x="1341" 
d="M575 1601l-173 274h207l131 -274h-165zM231 0l-197 1522h239l119 -1164l129 1164h296l128 -1164l119 1164h240l-197 -1522h-306l-132 1135l-132 -1135h-306z" />
    <glyph glyph-name="wgrave" unicode="&#x1e81;" horiz-adv-x="1354" 
d="M551 1281l-173 274h207l131 -274h-165zM194 0l-179 1203h239l123 -979h9l123 979h339l123 -979h9l123 979h239l-179 -1203h-361l-123 972l-123 -972h-362z" />
    <glyph glyph-name="Wacute" unicode="&#x1e82;" horiz-adv-x="1341" 
d="M581 1601l131 274h221l-180 -274h-172zM231 0l-197 1522h239l119 -1164l129 1164h296l128 -1164l119 1164h240l-197 -1522h-306l-132 1135l-132 -1135h-306z" />
    <glyph glyph-name="wacute" unicode="&#x1e83;" horiz-adv-x="1354" 
d="M549 1281l131 274h221l-180 -274h-172zM194 0l-179 1203h239l123 -979h9l123 979h339l123 -979h9l123 979h239l-179 -1203h-361l-123 972l-123 -972h-362z" />
    <glyph glyph-name="Wdieresis" unicode="&#x1e84;" horiz-adv-x="1341" 
d="M538 1625q-57 0 -82.5 27.5t-25.5 85.5q0 60 25.5 87.5t82.5 27.5q59 0 85 -27t26 -88q0 -59 -26 -86t-85 -27zM802 1625q-56 0 -82 27.5t-26 85.5q0 60 26 87.5t82 27.5q60 0 86 -27.5t26 -87.5q0 -58 -26.5 -85.5t-85.5 -27.5zM231 0l-197 1522h239l119 -1164l129 1164
h296l128 -1164l119 1164h240l-197 -1522h-306l-132 1135l-132 -1135h-306z" />
    <glyph glyph-name="wdieresis" unicode="&#x1e85;" horiz-adv-x="1354" 
d="M494 1305q-57 0 -82.5 27.5t-25.5 85.5q0 60 25.5 87.5t82.5 27.5q59 0 85 -27t26 -88q0 -59 -26 -86t-85 -27zM758 1305q-56 0 -82 27.5t-26 85.5q0 60 26 87.5t82 27.5q60 0 86 -27.5t26 -87.5q0 -58 -26.5 -85.5t-85.5 -27.5zM194 0l-179 1203h239l123 -979h9l123 979
h339l123 -979h9l123 979h239l-179 -1203h-361l-123 972l-123 -972h-362z" />
    <glyph glyph-name="uni1E9E" unicode="&#x1e9e;" horiz-adv-x="916" 
d="M471 -2v228q77 0 110 63q23 46 23 140v122q0 90 -22 131q-31 57 -111 57h-23v208l134 349h-111q-77 0 -107 -62q-22 -45 -22 -139v-1094l-239 -1v1096q0 198 72 303q89 128 296 128l347 -1v-234l-164 -404q93 -42 140.5 -129.5t47.5 -211.5v-117q0 -198 -73 -303
q-90 -129 -298 -129z" />
    <glyph glyph-name="Ygrave" unicode="&#x1ef2;" horiz-adv-x="849" 
d="M358 1588l-173 274h207l131 -274h-165zM311 0v556l-307 965h260l168 -638l180 638h234l-298 -965v-556h-237z" />
    <glyph glyph-name="ygrave" unicode="&#x1ef3;" horiz-adv-x="807" 
d="M332 1281l-173 274h207l131 -274h-165zM289 -452l-102 164q67 33 107 84q50 64 71 178l4 26h-147l-213 1203h240l153 -999h2l17 96l139 903h239q-42 -241 -73 -413t-73 -413l-70 -400q-29 -166 -109 -279q-77 -106 -185 -150z" />
    <glyph glyph-name="figuredash" unicode="&#x2012;" horiz-adv-x="694" 
d="M77 487v207h547v-207h-547z" />
    <glyph glyph-name="endash" unicode="&#x2013;" horiz-adv-x="875" 
d="M65 485v207h753v-207h-753z" />
    <glyph glyph-name="emdash" unicode="&#x2014;" horiz-adv-x="1310" 
d="M94 485v207h1111v-207h-1111z" />
    <glyph glyph-name="quoteleft" unicode="&#x2018;" horiz-adv-x="361" 
d="M36 1006v216q0 118 68 319l149 -24q-37 -164 -37 -220q0 -62 32 -62h38v-227z" />
    <glyph glyph-name="quoteright" unicode="&#x2019;" horiz-adv-x="361" 
d="M221 988l-149 24q37 164 37 220q0 62 -32 62h-38v227l250 2v-216q0 -118 -68 -319z" />
    <glyph glyph-name="quotesinglbase" unicode="&#x201a;" horiz-adv-x="417" 
d="M240 -293l-149 24q37 164 37 220q0 62 -32 62h-38v227l250 2v-216q0 -118 -68 -319z" />
    <glyph glyph-name="quotedblleft" unicode="&#x201c;" horiz-adv-x="755" 
d="M52 1025v216q0 118 68 319l149 -24q-37 -164 -37 -220q0 -62 32 -62h38v-227zM448 1022v216q0 118 68 319l149 -24q-37 -164 -37 -220q0 -62 32 -62h38v-227z" />
    <glyph glyph-name="quotedblright" unicode="&#x201d;" horiz-adv-x="765" 
d="M633 989l-149 24q37 164 37 220q0 62 -32 62h-38v227l250 2v-216q0 -118 -68 -319zM237 986l-149 24q37 164 37 220q0 62 -32 62h-38v227l250 2v-216q0 -118 -68 -319z" />
    <glyph glyph-name="quotedblbase" unicode="&#x201e;" horiz-adv-x="855" 
d="M240 -293l-149 24q37 164 37 220q0 62 -32 62h-38v227l250 2v-216q0 -118 -68 -319zM636 -293l-149 24q37 164 37 220q0 62 -32 62h-38v227l250 2v-216q0 -118 -68 -319z" />
    <glyph glyph-name="dagger" unicode="&#x2020;" horiz-adv-x="844" 
d="M307 -307v1187h-264v228h264v416h233v-416h263v-228h-263v-1187h-233z" />
    <glyph glyph-name="daggerdbl" unicode="&#x2021;" horiz-adv-x="846" 
d="M307 -307v413h-264v227h264v547h-264v228h264v416h233v-416h263v-228h-263v-547h263v-227h-263v-413h-233z" />
    <glyph glyph-name="bullet" unicode="&#x2022;" horiz-adv-x="804" 
d="M404 394q-130 0 -220 90q-92 89 -92 218q0 132 92 222q91 89 220 89t220 -89q89 -91 89 -222q0 -129 -89 -218q-90 -90 -220 -90z" />
    <glyph glyph-name="ellipsis" unicode="&#x2026;" horiz-adv-x="1278" 
d="M217 -20q-71 0 -104.5 31.5t-33.5 97.5q0 68 33.5 99.5t104.5 31.5q75 0 108 -31t33 -100q0 -67 -33.5 -98t-107.5 -31zM635 -20q-71 0 -104.5 31.5t-33.5 97.5q0 68 33.5 99.5t104.5 31.5q75 0 108 -31t33 -100q0 -67 -33.5 -98t-107.5 -31zM1053 -20q-71 0 -104.5 31.5
t-33.5 97.5q0 68 33.5 99.5t104.5 31.5q75 0 108 -31t33 -100q0 -67 -33.5 -98t-107.5 -31z" />
    <glyph glyph-name="perthousand" unicode="&#x2030;" horiz-adv-x="2224" 
d="M355 605q-156 0 -222 81q-58 71 -58 238v271q0 178 53 254q61 90 227 90q164 0 225 -90q51 -75 51 -254v-243q0 -181 -51 -256q-61 -91 -225 -91zM460 0l436 1521h225l-437 -1521h-224zM355 792q40 0 57 28.5t17 99.5v278q0 87 -12 117q-15 38 -62 38t-64 -38
q-13 -30 -13 -117v-250q0 -87 14 -117q16 -39 63 -39zM1213 -27q-157 0 -222 82q-58 73 -58 238v134q0 179 52 254q62 91 228 91q163 0 226 -90q51 -77 51 -255v-106q0 -180 -52 -257q-61 -91 -225 -91zM1846 -27q-157 0 -222 82q-58 73 -58 238v134q0 178 53 254
q62 91 227 91q163 0 226 -90q51 -77 51 -255v-106q0 -180 -52 -257q-61 -91 -225 -91zM1213 161q40 0 57 28.5t17 99.5v141q0 87 -12 118q-15 38 -62 38t-64 -38q-13 -30 -13 -117v-114q0 -87 14 -117q16 -39 63 -39zM1846 161q40 0 57 29t17 99v141q0 87 -12 118
q-15 38 -62 38t-64 -38q-12 -27 -12 -117v-114q0 -86 13 -117q17 -39 63 -39z" />
    <glyph glyph-name="guilsinglleft" unicode="&#x2039;" horiz-adv-x="499" 
d="M217 188l-175 402l175 404h233l-184 -404l184 -402h-233z" />
    <glyph glyph-name="guilsinglright" unicode="&#x203a;" horiz-adv-x="473" 
d="M40 188l184 402l-184 404h233l175 -404l-175 -402h-233z" />
    <glyph glyph-name="fraction" unicode="&#x2044;" horiz-adv-x="595" 
d="M155 -52l-202 39l463 1548l197 -38z" />
    <glyph glyph-name="uni2070" unicode="&#x2070;" horiz-adv-x="703" 
d="M354 825q-158 0 -222 82q-58 75 -58 237v354q0 178 53 254q63 90 227 90q163 0 224 -90q52 -77 52 -254v-326q0 -182 -51 -257q-61 -90 -225 -90zM354 1013q41 0 57 25q17 27 17 97v370q0 86 -13 116q-16 35 -61 35q-48 0 -64 -35q-14 -31 -14 -115v-342q0 -85 15 -115
q16 -36 63 -36z" />
    <glyph glyph-name="uni2074" unicode="&#x2074;" horiz-adv-x="726" 
d="M399 846v149h-337v143l152 683h205l-136 -624h116v267h202v-267h68v-202h-68v-149h-202z" />
    <glyph glyph-name="uni2075" unicode="&#x2075;" horiz-adv-x="707" 
d="M354 825q-146 0 -214 76q-65 69 -65 204v31h203l1 -30q5 -93 73 -93q53 0 68 45q11 33 11 133q0 83 -13 111q-16 35 -61 35q-60 0 -79 -67v-16h-203l16 567h503v-192h-306l-11 -185q42 60 149 60q129 0 173 -84q36 -68 36 -242q0 -206 -67 -282q-62 -71 -214 -71z" />
    <glyph glyph-name="uni2076" unicode="&#x2076;" horiz-adv-x="704" 
d="M348 825q-161 0 -225 98q-50 75 -50 227v363q0 157 51 233q65 96 223 96q159 0 220 -88q48 -69 48 -211v-28h-200v20q0 57 -10 84q-15 36 -58 36q-47 0 -62 -42q-10 -29 -10 -103v-127q45 96 147 96q132 0 177 -90q30 -62 30 -223v-21q0 -158 -48 -228q-65 -92 -233 -92z
M352 1013q48 0 65 38q10 23 10 89v16q0 69 -10 94q-17 43 -63 43q-48 0 -66 -41q-13 -30 -13 -96v-16q0 -53 9 -79q17 -48 68 -48z" />
    <glyph glyph-name="uni2077" unicode="&#x2077;" horiz-adv-x="599" 
d="M142 846l213 773h-138v-85h-188v287h548v-178l-217 -797h-218z" />
    <glyph glyph-name="uni2078" unicode="&#x2078;" horiz-adv-x="687" 
d="M345 825q-157 0 -224 81q-56 68 -56 206v51q0 138 78 194q-68 61 -68 198v6q0 137 56 204q63 77 213 77q151 0 215 -77q54 -66 54 -204v-12q0 -130 -69 -192q79 -56 79 -190v-55q0 -139 -55 -206q-67 -81 -223 -81zM345 1447q45 0 60 33q10 21 10 74q0 48 -11 70
q-17 32 -59 32q-44 0 -61 -34q-11 -22 -11 -67v-1q0 -51 11 -74q15 -33 61 -33zM345 1015q46 0 65 34q15 25 15 78v26q0 55 -13 79q-20 33 -67 33q-49 0 -67 -33q-15 -25 -15 -79v-27q0 -50 13 -75q19 -36 69 -36z" />
    <glyph glyph-name="uni2079" unicode="&#x2079;" horiz-adv-x="705" 
d="M357 826q-156 0 -219 86q-48 65 -48 209v22h199v-14q0 -52 11 -79q15 -37 57 -37q47 0 62 42q10 29 10 102v125q-47 -97 -147 -97q-132 0 -177 90q-31 62 -31 223v25q0 158 49 228q65 92 233 92q161 0 226 -98q49 -75 49 -227v-363q0 -155 -52 -232q-65 -97 -222 -97z
M351 1371q43 0 63 36q13 26 15 85v36q0 53 -8 81q-16 48 -68 48q-48 0 -64 -39q-12 -29 -12 -90v-20q0 -64 12 -94q17 -43 62 -43z" />
    <glyph glyph-name="uni207D" unicode="&#x207d;" horiz-adv-x="412" 
d="M387 769q-140 0 -218 70q-63 57 -84 156q-15 67 -15 163v350q0 93 12 150q22 105 82 162q79 76 223 76h18v-176h-18q-53 0 -81 -44q-24 -35 -29 -89q-4 -31 -4 -70v-374q0 -79 19 -126q28 -70 95 -70h18v-178h-18z" />
    <glyph glyph-name="uni207E" unicode="&#x207e;" horiz-adv-x="413" 
d="M42 772v178h18q67 0 95 70q19 48 19 126v374q0 39 -3 70q-7 55 -29 89q-30 44 -82 44h-18v176h18q144 0 223 -76q60 -57 82 -162q12 -57 12 -150v-350q0 -95 -14 -163q-22 -100 -85 -156q-78 -70 -218 -70h-18z" />
    <glyph glyph-name="uni2080" unicode="&#x2080;" horiz-adv-x="703" 
d="M354 -409q-158 0 -222 82q-58 75 -58 237v354q0 178 53 254q63 90 227 90q163 0 224 -90q52 -77 52 -254v-326q0 -182 -51 -257q-61 -90 -225 -90zM354 -221q41 0 57 25q17 27 17 97v370q0 86 -13 116q-16 35 -61 35q-48 0 -64 -35q-14 -31 -14 -115v-342q0 -85 15 -115
q16 -36 63 -36z" />
    <glyph glyph-name="uni2081" unicode="&#x2081;" horiz-adv-x="467" 
d="M173 -388v731q-41 -56 -133 -79v186q111 62 169 137h168v-975h-204z" />
    <glyph glyph-name="uni2082" unicode="&#x2082;" horiz-adv-x="694" 
d="M72 -388v193q20 89 112 188q39 42 82 82q100 93 139 153q23 38 23 74q0 51 -17 79q-19 32 -60 32q-42 0 -60 -36q-14 -28 -14 -78v-30h-203v51q0 138 66 211q70 78 215 78q275 0 275 -306q0 -108 -75 -207q-30 -40 -72 -80q-101 -97 -135 -140q-26 -34 -34 -70h308v-194
h-550z" />
    <glyph glyph-name="uni2083" unicode="&#x2083;" horiz-adv-x="692" 
d="M347 -410q-136 0 -204 65q-78 75 -78 231v31h201v-28q0 -48 15 -74q21 -36 66 -36q40 0 60.5 21.5t20.5 74.5v28q0 70 -25 101q-23 26 -70 26l-64 1v160l72 2q80 2 80 107v5q0 58 -12 83q-17 34 -62 34q-72 0 -72 -100v-38l-202 -2v20q0 155 65.5 230.5t210.5 75.5
q140 0 205 -72.5t65 -222.5q0 -180 -111 -199q57 -12 85 -58q35 -57 35 -174q0 -155 -74 -226q-69 -66 -207 -66z" />
    <glyph glyph-name="uni2084" unicode="&#x2084;" horiz-adv-x="726" 
d="M399 -388v149h-337v143l152 683h205l-136 -624h116v267h202v-267h68v-202h-68v-149h-202z" />
    <glyph glyph-name="uni2085" unicode="&#x2085;" horiz-adv-x="707" 
d="M354 -409q-146 0 -214 76q-65 69 -65 204v31h203l1 -30q5 -93 73 -93q53 0 68 45q11 33 11 133q0 83 -13 111q-16 35 -61 35q-60 0 -79 -67v-16h-203l16 567h503v-192h-306l-11 -185q42 60 149 60q129 0 173 -84q36 -68 36 -242q0 -206 -67 -282q-62 -71 -214 -71z" />
    <glyph glyph-name="uni2086" unicode="&#x2086;" horiz-adv-x="704" 
d="M348 -409q-161 0 -225 98q-50 75 -50 227v363q0 157 51 233q65 96 223 96q159 0 220 -88q48 -69 48 -211v-28h-200v20q0 57 -10 84q-15 36 -58 36q-47 0 -62 -42q-10 -29 -10 -103v-127q45 96 147 96q132 0 177 -90q30 -62 30 -223v-21q0 -158 -48 -228q-65 -92 -233 -92
zM352 -221q48 0 65 38q10 23 10 89v16q0 69 -10 94q-17 43 -63 43q-48 0 -66 -41q-13 -30 -13 -96v-16q0 -53 9 -79q17 -48 68 -48z" />
    <glyph glyph-name="uni2087" unicode="&#x2087;" horiz-adv-x="599" 
d="M142 -388l213 773h-138v-85h-188v287h548v-178l-217 -797h-218z" />
    <glyph glyph-name="uni2088" unicode="&#x2088;" horiz-adv-x="687" 
d="M345 -409q-157 0 -224 81q-56 68 -56 206v51q0 138 78 194q-68 61 -68 198v6q0 137 56 204q63 77 213 77q151 0 215 -77q54 -66 54 -204v-12q0 -130 -69 -192q79 -56 79 -190v-55q0 -139 -55 -206q-67 -81 -223 -81zM345 213q45 0 60 33q10 21 10 74q0 48 -11 70
q-17 32 -59 32q-44 0 -61 -34q-11 -22 -11 -67v-1q0 -51 11 -74q15 -33 61 -33zM345 -219q46 0 65 34q15 25 15 78v26q0 55 -13 79q-20 33 -67 33q-49 0 -67 -33q-15 -25 -15 -79v-27q0 -50 13 -75q19 -36 69 -36z" />
    <glyph glyph-name="uni2089" unicode="&#x2089;" horiz-adv-x="705" 
d="M357 -408q-156 0 -219 86q-48 65 -48 209v22h199v-14q0 -52 11 -79q15 -37 57 -37q47 0 62 42q10 29 10 102v125q-47 -97 -147 -97q-132 0 -177 90q-31 62 -31 223v25q0 158 49 228q65 92 233 92q161 0 226 -98q49 -75 49 -227v-363q0 -155 -52 -232q-65 -97 -222 -97z
M351 137q43 0 63 36q13 26 15 85v36q0 53 -8 81q-16 48 -68 48q-48 0 -64 -39q-12 -29 -12 -90v-20q0 -64 12 -94q17 -43 62 -43z" />
    <glyph glyph-name="uni208D" unicode="&#x208d;" horiz-adv-x="412" 
d="M387 -465q-140 0 -218 70q-63 57 -84 156q-15 67 -15 163v350q0 93 12 150q22 105 82 162q79 76 223 76h18v-176h-18q-53 0 -81 -44q-24 -35 -29 -89q-4 -31 -4 -70v-374q0 -79 19 -126q28 -70 95 -70h18v-178h-18z" />
    <glyph glyph-name="uni208E" unicode="&#x208e;" horiz-adv-x="413" 
d="M42 -462v178h18q67 0 95 70q19 47 19 126v374q0 39 -3 70q-7 55 -29 89q-30 44 -82 44h-18v176h18q144 0 223 -76q60 -57 82 -162q12 -57 12 -150v-350q0 -95 -14 -163q-22 -100 -85 -156q-78 -70 -218 -70h-18z" />
    <glyph glyph-name="lira" unicode="&#x20a4;" horiz-adv-x="852" 
d="M617 -15q-51 0 -179 12t-184 12q-32 0 -122 -9q-12 -2 -36 -4.5t-35 -3.5v224q80 23 125 85q40 57 46 133h-173v177h160l-10 46q-5 25 -12 46h-138v177h83q-64 197 -64 328q0 160 77 247q90 101 281 101q188 0 270 -117q74 -108 74 -331v-30q0 -21 -1 -32l-232 -2
q-3 20 -3 49q-2 76 -10 124q-11 68 -47 97q-19 16 -51 16q-64 0 -92.5 -42.5t-28.5 -130.5q0 -39 10 -89.5t21 -86.5t32 -101h293v-177h-239q14 -53 20 -92h219v-177h-209q-7 -70 -38 -131q-30 -59 -65 -84q19 3 40 3t96 -7q32 -4 47 -5q22 -3 41 -3q46 0 74 7q38 10 71 35
l78 -193q-71 -71 -189 -71z" />
    <glyph glyph-name="Euro" unicode="&#x20ac;" horiz-adv-x="847" 
d="M456 -20q-206 0 -295 128q-72 104 -72 300v155h-73l16 149h57v94h-73l16 148h57v160q0 199 72 301q90 127 294 127l1 1q204 0 295 -126q72 -101 72 -289v-87h-237v86q0 84 -22 128q-30 58 -108 58t-108 -61q-22 -45 -22 -139v-159h382l-16 -148h-366v-94h352l-16 -149
h-336v-154q0 -94 21 -137q30 -62 109 -62q75 0 106 56q24 43 24 127v89h237v-90q0 -186 -73 -286q-90 -125 -293 -125q-1 0 -1 -1z" />
    <glyph glyph-name="uni2116" unicode="&#x2116;" horiz-adv-x="1840" 
d="M1379 399q-208 0 -292 128q-67 102 -67 300v280q0 132 26 215q32 102 106 155q81 59 224 59q206 0 290 -128q66 -100 66 -301v-279q0 -202 -65 -301q-84 -128 -288 -128zM108 0v1521h263l270 -858v858h237v-1521h-241l-291 963v-963h-238zM1376 624q77 0 105 62
q18 41 18 139v287q0 98 -17 137q-27 63 -106 63q-77 0 -104 -61q-19 -41 -19 -140v-287q0 -96 17 -136q27 -64 106 -64zM1094 124v208h573v-208h-573z" />
    <glyph glyph-name="trademark" unicode="&#x2122;" horiz-adv-x="1534" 
d="M655 546v978h250l148 -546h6l147 546h247v-978h-201l13 532h-4l-122 -433h-168l-122 433h-4l13 -532h-203zM219 546v783h-183v194h567v-194h-181v-783h-203z" />
    <glyph glyph-name="uni2126" unicode="&#x2126;" horiz-adv-x="912" 
d="M104 0v227h118l-3 120q-79 54 -108 166q-22 83 -22 228v373q0 199 72 301q90 127 295 127v-1q0 1 1 1q208 0 296 -127q71 -103 71 -301v-373q0 -147 -23 -229q-31 -112 -108 -165l-2 -120h118v-227h-316v526q61 0 80 52q14 37 14 118v417q0 96 -20 137q-30 62 -110 62
q-4 0 -5 1q-76 -1 -105 -62q-21 -46 -21 -138v-426q0 -76 15 -111q20 -50 79 -50v-526h-316z" />
    <glyph glyph-name="estimated" unicode="&#x212e;" horiz-adv-x="896" 
d="M451 -20q-208 0 -292 128q-67 102 -67 301v385q0 202 67 303q83 127 288 127h1q205 0 290 -122q66 -95 66 -284v-231l-513 -26v-254q0 -109 24 -162q36 -78 134 -78q94 0 132 70q25 47 25 148v133h198v-32q0 -191 -65 -285q-83 -121 -288 -121zM291 654l315 16v251
q0 97 -24 147q-36 71 -133 71q-96 0 -132 -76q-26 -54 -26 -166v-243z" />
    <glyph glyph-name="partialdiff" unicode="&#x2202;" 
d="M432 -20q-206 0 -288 129q-65 99 -65 303v156q0 135 16 214q21 104 80 157q67 61 192 61q130 -1 181 -123v219q0 111 -16 154q-24 63 -99 63q-11 0 -14 -1l-22 229q6 1 18 1h19q204 0 287 -127q64 -98 64 -302v-702q0 -202 -64 -301q-83 -130 -289 -130zM432 210
q73 0 100 59q16 37 16 128v179q-2 91 -24 137q-28 57 -99 57t-95 -70q-15 -44 -15 -149v-122q0 -107 17 -151q25 -68 100 -68z" />
    <glyph glyph-name="uni2206" unicode="&#x2206;" horiz-adv-x="872" 
d="M13 0l248 1521h354l245 -1521h-244l-172 1205h-12l-143 -975h272l26 -230h-574z" />
    <glyph glyph-name="product" unicode="&#x220f;" horiz-adv-x="909" 
d="M108 -175v1696h694v-1696h-232v1472h-228v-1472h-234z" />
    <glyph glyph-name="summation" unicode="&#x2211;" horiz-adv-x="851" 
d="M87 0v214l257 547l-250 547v213h663v-229h-403l236 -491v-81l-243 -491h420v-229h-680z" />
    <glyph glyph-name="minus" unicode="&#x2212;" horiz-adv-x="834" 
d="M87 600v207h660v-207h-660z" />
    <glyph glyph-name="approxequal" unicode="&#x2248;" horiz-adv-x="732" 
d="M168 761l-116 41q26 94 72 145q52 59 134 59q48 0 114 -33l45 -22q22 -11 44 -11q58 0 86 69l117 -38q-25 -98 -69 -146q-54 -60 -136 -60q-46 0 -110 33q-66 33 -90 33q-61 0 -91 -70zM168 398l-116 41q26 94 72 145q52 59 134 59q48 0 114 -33l45 -22q22 -11 44 -11
q58 0 86 69l117 -38q-25 -98 -69 -146q-54 -60 -136 -60q-46 0 -110 33q-66 33 -90 33q-61 0 -91 -70z" />
    <glyph glyph-name="notequal" unicode="&#x2260;" horiz-adv-x="834" 
d="M389 246l-172 46l28 103h-158v207h214l40 149h-254v207h310l43 157l172 -46l-30 -111h165v-207h-221l-41 -149h262v-207h-318z" />
    <glyph glyph-name="lessequal" unicode="&#x2264;" horiz-adv-x="811" 
d="M681 354l-580 403v180l580 402v-254l-332 -239l332 -237v-255zM91 94v208h608v-208h-608z" />
    <glyph glyph-name="greaterequal" unicode="&#x2265;" horiz-adv-x="800" 
d="M92 354v255l332 237l-332 239v254l580 -402v-180zM74 94v208h608v-208h-608z" />
    <glyph glyph-name="uniF6C3" unicode="&#xf6c3;" horiz-adv-x="0" 
d="M-171 -447l-86 48q29 41 42 71q12 29 16 68q-54 0 -80 24t-26 77q0 55 27 79t86 24q118 0 118 -125q0 -93 -30 -165q-22 -54 -67 -101z" />
    <glyph glyph-name="uniF6E1" unicode="&#xf6e1;" horiz-adv-x="392" 
d="M224 -634l-105 61q34 45 51 86q13 32 20 83q-129 0 -129 129q0 68 33.5 99.5t104.5 31.5q142 0 142 -157q0 -116 -36 -206q-28 -71 -81 -127z" />
    <glyph glyph-name="uniF6E2" unicode="&#xf6e2;" horiz-adv-x="392" 
d="M224 600l-105 61q34 45 51 86q13 32 20 83q-129 0 -129 129q0 68 33.5 99.5t104.5 31.5q142 0 142 -157q0 -116 -36 -206q-28 -71 -81 -127z" />
    <glyph glyph-name="uniF6E5" unicode="&#xf6e5;" horiz-adv-x="585" 
d="M47 -2v190h502v-190h-502z" />
    <glyph glyph-name="uniF6E6" unicode="&#xf6e6;" horiz-adv-x="585" 
d="M47 1232v190h502v-190h-502z" />
    <glyph glyph-name="uniF6E7" unicode="&#xf6e7;" horiz-adv-x="405" 
d="M199 -411q-71 0 -104.5 31.5t-33.5 97.5q0 68 33.5 99.5t104.5 31.5q75 0 108 -31t33 -100q0 -67 -33.5 -98t-107.5 -31z" />
    <glyph glyph-name="uniF6E8" unicode="&#xf6e8;" horiz-adv-x="405" 
d="M199 822q-71 0 -104.5 31.5t-33.5 97.5q0 68 33.5 99.5t104.5 31.5q75 0 108 -31t33 -100q0 -67 -33.5 -98t-107.5 -31z" />
    <glyph glyph-name="uniF6F9" unicode="&#xf6f9;" horiz-adv-x="809" 
d="M166 0v403l-158 -125v215l158 125v584h233l-1 -400l176 139v-216l-176 -139v-354h397v-232h-629z" />
    <glyph glyph-name="uniF6FA" unicode="&#xf6fa;" horiz-adv-x="1293" 
d="M454 -20q-208 0 -292 128q-68 101 -68 301v312v59q0 39 1 58q2 181 76 276q86 110 280 110q54 0 112 -29q24 -13 43 -26q2 -2 37 -27v60h560v-231h-397v-243h283v-231h-283v-266h397v-231h-561v45q-89 -65 -188 -65zM451 206q56 0 86 33q24 27 31 77q6 66 6 174v225
q0 147 -17 203q-13 37 -32 56q-28 26 -74 26q-59 0 -88 -36q-23 -28 -30 -81q-6 -62 -6 -171v-220q0 -144 17 -200q9 -36 31 -58q28 -28 76 -28z" />
    <glyph glyph-name="uniF6FD" unicode="&#xf6fd;" horiz-adv-x="806" 
d="M290 1281l-138 241h190l58 -120l58 120h190l-138 -241h-220zM400 -20q-195 0 -281 111q-74 96 -74 293h233q0 -82 24 -125q29 -53 95 -53q56 0 85 34q25 29 25 81q0 66 -70 123q-29 24 -72 49q-129 78 -165 105q-86 65 -122 153q-20 48 -20 109q0 185 77 270
q85 94 270 94q165 0 245 -77q92 -90 92 -307l-233 1q0 70 -19 108q-26 51 -85 51q-55 0 -86 -36q-26 -30 -26 -77q0 -42 30.5 -75.5t88.5 -70.5q40 -25 110 -66q135 -77 195 -182q34 -58 34 -142q0 -179 -77 -269q-88 -102 -274 -102z" />
    <glyph glyph-name="uniF6FF" unicode="&#xf6ff;" horiz-adv-x="758" 
d="M283 1281l-138 241h190l58 -120l58 120h190l-138 -241h-220zM43 0v198l396 788h-368v216h626v-197l-394 -783h394v-222h-654z" />
    <glyph glyph-name="uniF730" unicode="&#xf730;" horiz-adv-x="894" 
d="M447 -20q-206 0 -289 126q-65 96 -65 298v395q0 202 66 300q84 125 288 125q206 0 289 -126q64 -97 64 -299v-394q0 -202 -65 -300q-83 -125 -288 -125zM331 589l228 275q-10 59 -24 83q-28 47 -88 47q-76 0 -101 -59q-16 -38 -16 -137v-151v-29q0 -20 1 -29zM447 210
q75 0 101 59q16 38 16 136v154v33q0 20 -1 30l-228 -281q10 -61 24 -84q26 -47 88 -47z" />
    <glyph glyph-name="uniF731" unicode="&#xf731;" horiz-adv-x="635" 
d="M243 0v888q-32 -39 -98 -59q-40 -13 -125 -28v221q90 21 159 75q50 39 104 112h191v-1209h-231z" />
    <glyph glyph-name="uniF732" unicode="&#xf732;" horiz-adv-x="899" 
d="M107 0v232q30 115 156 239q56 55 108 98q131 108 179 179q30 44 30 91q0 151 -118 151q-67 0 -94 -50q-21 -37 -21 -113v-60h-237v84q0 175 83 270q89 102 273 102q351 0 351 -382q0 -144 -97 -270q-16 -21 -34 -41t-41 -42t-36 -34t-41.5 -37.5t-35.5 -31.5
q-54 -48 -85 -84t-40 -72h402v-229h-702z" />
    <glyph glyph-name="uniF733" unicode="&#xf733;" horiz-adv-x="901" 
d="M452 -338q-172 0 -261 90q-97 99 -97 299v91h236v-105q0 -69 32.5 -107t89.5 -38q63 0 91 36q33 42 33 138v135q0 82 -38 120q-34 31 -101 31l-85 2v218l93 3q60 0 88 40q31 45 31 152v56q0 87 -20 125q-27 47 -94 47q-60 0 -85 -38t-25 -111v-103h-238v90q0 198 82 292
q87 99 272 99q179 0 262 -98q83 -101 83 -315q0 -161 -36 -241q-33 -73 -110 -103q90 -27 126 -118q31 -81 31 -238q0 -247 -85 -349q-83 -100 -275 -100z" />
    <glyph glyph-name="uniF734" unicode="&#xf734;" horiz-adv-x="941" 
d="M537 -318v239h-429v162l234 1120h243l-220 -1053h172v382h231v-382h100v-229h-100v-239h-231z" />
    <glyph glyph-name="uniF735" unicode="&#xf735;" horiz-adv-x="900" 
d="M449 -338q-185 0 -273 97q-81 88 -81 263v129h237v-131q0 -128 113 -128q43 0 67.5 14.5t36.5 48.5q18 52 18 245q0 176 -20 229q-12 30 -33.5 42t-59.5 12q-100 0 -123 -100v-27h-236l21 847h641v-230h-408l-14 -350q56 80 203 80q91 0 144.5 -27.5t81.5 -88.5
q26 -57 35.5 -150t9.5 -243q0 -304 -86 -421q-81 -111 -274 -111z" />
    <glyph glyph-name="uniF736" unicode="&#xf736;" horiz-adv-x="893" 
d="M446 -20q-206 0 -289 130q-64 99 -64 301v702q0 204 64 302q83 127 287 127q200 0 282 -125q60 -95 60 -277v-61h-237v43q0 88 -15 128q-24 63 -89 63q-75 0 -99 -63q-16 -43 -16 -154v-219q50 122 181 123q180 0 244 -130q45 -92 45 -302v-156q0 -202 -65 -303
q-84 -129 -289 -129zM446 210q74 0 101 68q16 44 16 151v122q0 108 -14 149q-24 70 -96 70q-75 0 -103 -65q-20 -47 -20 -155v-153q0 -91 17 -128q25 -59 99 -59z" />
    <glyph glyph-name="uniF737" unicode="&#xf737;" horiz-adv-x="940" 
d="M252 -318l341 1291h-266v-172h-219v402h738v-181l-345 -1340h-249z" />
    <glyph glyph-name="uniF738" unicode="&#xf738;" horiz-adv-x="884" 
d="M437 -20q-200 0 -284 118q-70 96 -70 290v67q0 130 28.5 209.5t98.5 122.5q-117 81 -117 314v32q0 192 64 288q81 121 280 121q200 0 281 -121q63 -95 63 -288v-35q0 -106 -27 -181q-32 -86 -100 -131q73 -44 106 -129q30 -77 30 -190v-79q0 -196 -70 -291
q-85 -117 -283 -117zM437 904q70 0 92 64q14 39 14 126v21q0 98 -12 135q-22 63 -94 63q-74 0 -95 -61q-12 -34 -12 -136v-21q0 -91 13 -127q22 -64 94 -64zM437 210q71 0 98 57q19 42 19 139v60q0 99 -16 142q-27 67 -101 67q-73 0 -99 -68q-18 -45 -18 -141v-61
q0 -99 15 -135q25 -60 102 -60z" />
    <glyph glyph-name="uniF739" unicode="&#xf739;" horiz-adv-x="894" 
d="M449 -338q-201 0 -281 126q-61 95 -61 277v60h237v-43q0 -86 16 -128q24 -63 88 -63q74 0 100 64q16 43 16 154v221q-49 -125 -182 -125q-181 0 -244 130q-45 91 -45 302v155q0 202 66 304q83 128 288 128q204 0 289 -129q64 -100 64 -302v-701q0 -204 -64 -302
q-84 -128 -287 -128zM440 434q72 0 101 59q21 42 23 143v140q0 110 -12 147q-23 72 -105 72q-75 0 -100 -69q-17 -44 -17 -151v-122q0 -106 15 -150q24 -69 95 -69z" />
    <glyph glyph-name="uniF761" unicode="&#xf761;" horiz-adv-x="821" 
d="M11 0l213 1203h371l213 -1203h-239l-30 192h-260l-29 -192h-239zM311 396h197l-90 584h-18z" />
    <glyph glyph-name="uniF762" unicode="&#xf762;" horiz-adv-x="898" 
d="M106 0v1202h324q185 0 274.5 -86t89.5 -264v-7q0 -154 -123 -233q136 -80 136 -249v-7q0 -182 -86.5 -269t-270.5 -87h-344zM337 716h89q69 0 99.5 31t30.5 98v10q0 66 -32.5 95t-95.5 29h-91v-263zM337 223h111q128 0 128 130v10q0 68 -32.5 105.5t-97.5 37.5h-109v-283
z" />
    <glyph glyph-name="uniF763" unicode="&#xf763;" 
d="M441 -20q-208 0 -292 128q-67 102 -67 301v422q2 185 74 280q86 113 283 113q205 0 290 -121q66 -94 66 -279v-20h-231v24q0 78 -18 115q-29 57 -107 57t-105 -62q-19 -41 -19 -139v-273v-96q0 -33 2 -95q5 -58 29 -89q30 -40 93 -40q77 0 105 55q20 38 20 117v21h231
v-19q0 -187 -65 -280q-85 -120 -289 -120z" />
    <glyph glyph-name="uniF764" unicode="&#xf764;" horiz-adv-x="898" 
d="M106 0v1202h348q204 -1 292 -125q72 -103 72 -299v-354q0 -198 -73 -299q-89 -125 -294 -125h-345zM343 229h108q72 0 103 53q28 48 28 143v352q0 96 -26 141q-32 53 -99 54h-114v-743z" />
    <glyph glyph-name="uniF765" unicode="&#xf765;" horiz-adv-x="804" 
d="M107 0v1202h629v-231h-397v-243h283v-231h-283v-266h397v-231h-629z" />
    <glyph glyph-name="uniF766" unicode="&#xf766;" horiz-adv-x="757" 
d="M107 0v1202h629v-232h-397v-274h290v-233h-290l1 -463h-233z" />
    <glyph glyph-name="uniF767" unicode="&#xf767;" horiz-adv-x="867" 
d="M440 -20q-208 0 -292 128q-68 101 -68 301v312v55q0 36 1 55q2 185 74 280q86 113 282 113q205 0 290 -121q66 -94 66 -279v-20h-230v24q0 78 -18 115q-29 57 -108 57q-78 0 -105 -62q-19 -41 -19 -139v-273q0 -128 3 -191q5 -58 29 -89q30 -40 92 -40q78 0 106 55
q20 38 20 117v76h-134v186h364l-4 -93h4v-167q0 -187 -65 -280q-84 -120 -288 -120z" />
    <glyph glyph-name="uniF768" unicode="&#xf768;" horiz-adv-x="933" 
d="M107 0v1202h233v-492h254v492h232v-1202h-232v480h-254v-480h-233z" />
    <glyph glyph-name="uniF769" unicode="&#xf769;" horiz-adv-x="446" 
d="M108 0v1202h232v-1202h-232z" />
    <glyph glyph-name="uniF76A" unicode="&#xf76a;" horiz-adv-x="631" 
d="M180 -19q-119 0 -191 57l71 199q55 -27 127 -27q65 0 92 40q26 37 26 131v821h233l-1 -821v-11q0 -192 -71 -283q-83 -106 -286 -106z" />
    <glyph glyph-name="uniF76B" unicode="&#xf76b;" horiz-adv-x="876" 
d="M106 0v1201h232v-481h86l180 482h236l-242 -601l273 -601h-257l-193 491h-83v-491h-232z" />
    <glyph glyph-name="uniF76C" unicode="&#xf76c;" horiz-adv-x="747" 
d="M107 0v1202h233l-1 -970h397v-232h-629z" />
    <glyph glyph-name="uniF76D" unicode="&#xf76d;" horiz-adv-x="1190" 
d="M107 0v1204h308l178 -662h6l180 662h308v-1204h-236l8 868l-164 -657h-198l-162 655l9 -866h-237z" />
    <glyph glyph-name="uniF76E" unicode="&#xf76e;" horiz-adv-x="941" 
d="M108 0l-3 1202h63v1l198 -1l228 -657v657h237v-1202h-261l-225 673v-673h-237z" />
    <glyph glyph-name="uniF76F" unicode="&#xf76f;" horiz-adv-x="874" 
d="M440 -20q-208 0 -292 128q-68 101 -68 301v385q0 202 67 303q85 127 290 127t290 -129q66 -100 66 -300v-386q0 -202 -65 -301q-84 -128 -288 -128zM437 206q77 0 105 62q18 40 18 138v393q0 98 -17 138q-27 63 -106 63q-78 0 -105 -62q-19 -41 -19 -139v-394
q0 -97 17 -136q27 -63 107 -63z" />
    <glyph glyph-name="uniF770" unicode="&#xf770;" horiz-adv-x="858" 
d="M107 0v1202h343q183 0 270.5 -87.5t87.5 -268.5v-92q0 -194 -122 -289q-100 -77 -264 -77h-84v-388h-231zM338 611h109q128 0 130 143v95q0 68 -31.5 99t-97.5 31h-110v-368z" />
    <glyph glyph-name="uniF771" unicode="&#xf771;" horiz-adv-x="874" 
d="M332 -175v166q-144 29 -203 151q-49 98 -49 267v385q0 202 67 303q85 127 290 127t290 -129q66 -100 66 -300v-386q0 -173 -47 -271q-60 -121 -205 -149v-164h-209zM437 206q77 0 105 62q18 40 18 138v393q0 98 -17 138q-27 63 -106 63q-78 0 -105 -62q-19 -41 -19 -139
v-394q0 -97 17 -136q27 -63 107 -63z" />
    <glyph glyph-name="uniF772" unicode="&#xf772;" horiz-adv-x="890" 
d="M107 0v1202h343q183 0 270.5 -87.5t87.5 -268.5v-52q0 -90 -40 -164t-109 -124q60 -37 83 -84q22 -45 39 -170l11 -91q7 -58 19 -93q7 -22 29 -68h-239q-29 74 -40 154l-13 92q-15 107 -51 146q-28 29 -85 36h-74v-428h-231zM338 651h109q128 0 130 143v55q0 68 -31.5 99
t-97.5 31h-110v-328z" />
    <glyph glyph-name="uniF773" unicode="&#xf773;" horiz-adv-x="806" 
d="M400 -20q-195 0 -281 111q-74 96 -74 293h233q0 -82 24 -125q29 -53 95 -53q56 0 85 34q25 29 25 81q0 66 -70 123q-29 24 -72 49q-129 78 -165 105q-86 65 -122 153q-20 48 -20 109q0 185 77 270q85 94 270 94q165 0 245 -77q92 -90 92 -307l-233 1q0 70 -19 108
q-26 51 -85 51q-55 0 -86 -36q-26 -30 -26 -77q0 -42 30.5 -75.5t88.5 -70.5q40 -25 110 -66q135 -77 195 -182q34 -58 34 -142q0 -179 -77 -269q-88 -102 -274 -102z" />
    <glyph glyph-name="uniF774" unicode="&#xf774;" horiz-adv-x="686" 
d="M229 -1v978h-222v225h673v-225h-221v-978h-230z" />
    <glyph glyph-name="uniF775" unicode="&#xf775;" horiz-adv-x="896" 
d="M460 -20q-207 0 -294 107q-73 90 -73 283v832h236v-829q0 -84 20 -117q28 -47 109 -47q76 1 103 48q19 34 19 116v829h236v-832q0 -190 -71 -281q-84 -108 -285 -109z" />
    <glyph glyph-name="uniF776" unicode="&#xf776;" horiz-adv-x="818" 
d="M248 0l-239 1203h239l161 -979l161 979h239l-239 -1203h-322z" />
    <glyph glyph-name="uniF777" unicode="&#xf777;" horiz-adv-x="1384" 
d="M198 0l-179 1203h239l123 -979h9l123 979h340l123 -979h8l124 979h239l-180 -1203h-361l-123 968l-123 -968h-362z" />
    <glyph glyph-name="uniF778" unicode="&#xf778;" horiz-adv-x="821" 
d="M16 0l250 625l-236 577h244l141 -373l150 373h227l-237 -577l251 -625h-243l-157 407l-163 -407h-227z" />
    <glyph glyph-name="uniF779" unicode="&#xf779;" horiz-adv-x="752" 
d="M263 0v449l-251 753h229l142 -507l146 507h213l-243 -753v-449h-236z" />
    <glyph glyph-name="uniF77A" unicode="&#xf77a;" horiz-adv-x="758" 
d="M43 0v198l396 788h-368v216h626v-197l-394 -783h394v-222h-654z" />
    <glyph glyph-name="uniF7E0" unicode="&#xf7e0;" horiz-adv-x="821" 
d="M337 1281l-173 274h207l131 -274h-165zM11 0l213 1203h371l213 -1203h-239l-30 192h-260l-29 -192h-239zM311 396h197l-90 584h-18z" />
    <glyph glyph-name="uniF7E1" unicode="&#xf7e1;" horiz-adv-x="821" 
d="M322 1281l131 274h221l-180 -274h-172zM11 0l213 1203h371l213 -1203h-239l-30 192h-260l-29 -192h-239zM311 396h197l-90 584h-18z" />
    <glyph glyph-name="uniF7E2" unicode="&#xf7e2;" horiz-adv-x="821" 
d="M162 1281l138 241h221l138 -241h-190l-59 120l-57 -120h-191zM11 0l213 1203h371l213 -1203h-239l-30 192h-260l-29 -192h-239zM311 396h197l-90 584h-18z" />
    <glyph glyph-name="uniF7E3" unicode="&#xf7e3;" horiz-adv-x="821" 
d="M222 1302l-116 41q26 94 72 145q52 59 134 59q48 0 114 -33l45 -22q22 -11 44 -11q58 0 86 69l117 -38q-25 -98 -69 -146q-54 -60 -136 -60q-46 0 -110 33q-66 33 -90 33q-61 0 -91 -70zM11 0l213 1203h371l213 -1203h-239l-30 192h-260l-29 -192h-239zM311 396h197
l-90 584h-18z" />
    <glyph glyph-name="uniF7E4" unicode="&#xf7e4;" horiz-adv-x="821" 
d="M278 1305q-57 0 -82.5 27.5t-25.5 85.5q0 60 25.5 87.5t82.5 27.5q59 0 85 -27t26 -88q0 -59 -26 -86t-85 -27zM542 1305q-56 0 -82 27.5t-26 85.5q0 60 26 87.5t82 27.5q60 0 86 -27.5t26 -87.5q0 -58 -26.5 -85.5t-85.5 -27.5zM11 0l213 1203h371l213 -1203h-239
l-30 192h-260l-29 -192h-239zM311 396h197l-90 584h-18z" />
    <glyph glyph-name="uniF7E5" unicode="&#xf7e5;" horiz-adv-x="821" 
d="M408 1274q-107 0 -158 48.5t-51 147.5q0 103 50.5 151.5t158.5 48.5q113 0 163 -48.5t50 -151.5q0 -100 -50.5 -148t-162.5 -48zM409 1413q34 0 48 14.5t14 43.5q0 30 -14 44.5t-48 14.5q-60 0 -60 -59q0 -58 60 -58zM11 0l213 1203h371l213 -1203h-239l-30 192h-260
l-29 -192h-239zM311 396h197l-90 584h-18z" />
    <glyph glyph-name="uniF7E6" unicode="&#xf7e6;" horiz-adv-x="1178" 
d="M482 -1v193h-172l-40 -192h-239l273 1202h710v-231h-300v-243h185v-231h-185v-266h300v-231zM353 396h129v584h-7z" />
    <glyph glyph-name="uniF7E7" unicode="&#xf7e7;" 
d="M432 -410q-127 0 -200 75l37 86q32 -23 65 -34q37 -14 92 -14q40 0 64.5 16t24.5 48q0 26 -32 41q-29 12 -68 12q-30 0 -56 -8v174q-159 24 -224 147q-53 97 -53 276v422q2 185 74 280q86 113 283 113q205 0 290 -121q66 -94 66 -279v-20h-231v24q0 78 -18 115
q-29 57 -107 57t-105 -62q-19 -41 -19 -139v-273v-96q0 -33 2 -95q5 -58 29 -89q30 -40 93 -40q77 0 105 55q20 38 20 117v21h231v-19q0 -178 -59 -270q-74 -118 -258 -129v-55l17 3q15 4 42 4q67 0 110 -46q40 -45 40 -110q0 -90 -71 -140q-66 -47 -184 -47z" />
    <glyph glyph-name="uniF7E8" unicode="&#xf7e8;" horiz-adv-x="804" 
d="M340 1281l-173 274h207l131 -274h-165zM107 0v1202h629v-231h-397v-243h283v-231h-283v-266h397v-231h-629z" />
    <glyph glyph-name="uniF7E9" unicode="&#xf7e9;" horiz-adv-x="804" 
d="M313 1281l131 274h221l-180 -274h-172zM107 0v1202h629v-231h-397v-243h283v-231h-283v-266h397v-231h-629z" />
    <glyph glyph-name="uniF7EA" unicode="&#xf7ea;" horiz-adv-x="804" 
d="M162 1281l138 241h221l138 -241h-190l-59 120l-57 -120h-191zM107 0v1202h629v-231h-397v-243h283v-231h-283v-266h397v-231h-629z" />
    <glyph glyph-name="uniF7EB" unicode="&#xf7eb;" horiz-adv-x="804" 
d="M282 1305q-57 0 -82.5 27.5t-25.5 85.5q0 60 25.5 87.5t82.5 27.5q59 0 85 -27t26 -88q0 -59 -26 -86t-85 -27zM546 1305q-56 0 -82 27.5t-26 85.5q0 60 26 87.5t82 27.5q60 0 86 -27.5t26 -87.5q0 -58 -26.5 -85.5t-85.5 -27.5zM107 0v1202h629v-231h-397v-243h283v-231
h-283v-266h397v-231h-629z" />
    <glyph glyph-name="uniF7EC" unicode="&#xf7ec;" horiz-adv-x="446" 
d="M135 1281l-173 274h207l131 -274h-165zM108 0v1202h232v-1202h-232z" />
    <glyph glyph-name="uniF7ED" unicode="&#xf7ed;" horiz-adv-x="446" 
d="M136 1281l131 274h221l-180 -274h-172zM108 0v1202h232v-1202h-232z" />
    <glyph glyph-name="uniF7EE" unicode="&#xf7ee;" horiz-adv-x="446" 
d="M-25 1281l138 241h221l138 -241h-190l-59 120l-57 -120h-191zM108 0v1202h232v-1202h-232z" />
    <glyph glyph-name="uniF7EF" unicode="&#xf7ef;" horiz-adv-x="446" 
d="M90 1305q-57 0 -82.5 27.5t-25.5 85.5q0 60 25.5 87.5t82.5 27.5q59 0 85 -27t26 -88q0 -59 -26 -86t-85 -27zM354 1305q-56 0 -82 27.5t-26 85.5q0 60 26 87.5t82 27.5q60 0 86 -27.5t26 -87.5q0 -58 -26.5 -85.5t-85.5 -27.5zM108 0v1202h232v-1202h-232z" />
    <glyph glyph-name="uniF7F0" unicode="&#xf7f0;" horiz-adv-x="917" 
d="M108 0v487h-103v207h103v508h348q204 -1 292 -125q72 -103 72 -299v-354q0 -198 -73 -299q-89 -125 -294 -125h-345zM345 229h108q72 0 103 53q28 48 28 143v352q0 96 -26 141q-32 53 -99 54h-114v-278h98v-207h-98v-258z" />
    <glyph glyph-name="uniF7F1" unicode="&#xf7f1;" horiz-adv-x="933" 
d="M300 1302l-116 41q26 94 72 145q52 59 134 59q48 0 114 -33l45 -22q22 -11 44 -11q58 0 86 69l117 -38q-25 -98 -69 -146q-54 -60 -136 -60q-46 0 -110 33q-66 33 -90 33q-61 0 -91 -70zM108 0l-3 1202h63v1l198 -1l228 -657v657h237v-1202h-261l-225 673v-673h-237z" />
    <glyph glyph-name="uniF7F2" unicode="&#xf7f2;" horiz-adv-x="874" 
d="M348 1281l-173 274h207l131 -274h-165zM440 -20q-208 0 -292 128q-68 101 -68 301v385q0 202 67 303q85 127 290 127t290 -129q66 -100 66 -300v-386q0 -202 -65 -301q-84 -128 -288 -128zM437 206q77 0 105 62q18 40 18 138v393q0 98 -17 138q-27 63 -106 63
q-78 0 -105 -62q-19 -41 -19 -139v-394q0 -97 17 -136q27 -63 107 -63z" />
    <glyph glyph-name="uniF7F3" unicode="&#xf7f3;" horiz-adv-x="874" 
d="M340 1281l131 274h221l-180 -274h-172zM440 -20q-208 0 -292 128q-68 101 -68 301v385q0 202 67 303q85 127 290 127t290 -129q66 -100 66 -300v-386q0 -202 -65 -301q-84 -128 -288 -128zM437 206q77 0 105 62q18 40 18 138v393q0 98 -17 138q-27 63 -106 63
q-78 0 -105 -62q-19 -41 -19 -139v-394q0 -97 17 -136q27 -63 107 -63z" />
    <glyph glyph-name="uniF7F4" unicode="&#xf7f4;" horiz-adv-x="874" 
d="M181 1281l138 241h221l138 -241h-190l-59 120l-57 -120h-191zM440 -20q-208 0 -292 128q-68 101 -68 301v385q0 202 67 303q85 127 290 127t290 -129q66 -100 66 -300v-386q0 -202 -65 -301q-84 -128 -288 -128zM437 206q77 0 105 62q18 40 18 138v393q0 98 -17 138
q-27 63 -106 63q-78 0 -105 -62q-19 -41 -19 -139v-394q0 -97 17 -136q27 -63 107 -63z" />
    <glyph glyph-name="uniF7F5" unicode="&#xf7f5;" horiz-adv-x="874" 
d="M240 1302l-116 41q26 94 72 145q52 59 134 59q48 0 114 -33l45 -22q22 -11 44 -11q58 0 86 69l117 -38q-25 -98 -69 -146q-54 -60 -136 -60q-46 0 -110 33q-66 33 -90 33q-61 0 -91 -70zM440 -20q-208 0 -292 128q-68 101 -68 301v385q0 202 67 303q85 127 290 127
t290 -129q66 -100 66 -300v-386q0 -202 -65 -301q-84 -128 -288 -128zM437 206q77 0 105 62q18 40 18 138v393q0 98 -17 138q-27 63 -106 63q-78 0 -105 -62q-19 -41 -19 -139v-394q0 -97 17 -136q27 -63 107 -63z" />
    <glyph glyph-name="uniF7F6" unicode="&#xf7f6;" horiz-adv-x="874" 
d="M297 1305q-57 0 -82.5 27.5t-25.5 85.5q0 60 25.5 87.5t82.5 27.5q59 0 85 -27t26 -88q0 -59 -26 -86t-85 -27zM561 1305q-56 0 -82 27.5t-26 85.5q0 60 26 87.5t82 27.5q60 0 86 -27.5t26 -87.5q0 -58 -26.5 -85.5t-85.5 -27.5zM440 -20q-208 0 -292 128
q-68 101 -68 301v385q0 202 67 303q85 127 290 127t290 -129q66 -100 66 -300v-386q0 -202 -65 -301q-84 -128 -288 -128zM437 206q77 0 105 62q18 40 18 138v393q0 98 -17 138q-27 63 -106 63q-78 0 -105 -62q-19 -41 -19 -139v-394q0 -97 17 -136q27 -63 107 -63z" />
    <glyph glyph-name="uniF7F8" unicode="&#xf7f8;" horiz-adv-x="874" 
d="M181 -94l-172 3l114 244q-43 95 -43 256v385q0 202 67 303q85 127 290 127q97 0 171 -30l57 122l170 -3l-104 -224q62 -102 62 -294v-386q0 -202 -65 -301q-84 -128 -288 -128q-122 0 -204 45zM313 561l195 419q-28 20 -71 20q-78 0 -105 -62q-19 -41 -19 -139v-238z
M437 206q77 0 105 62q18 40 18 138v315l-220 -472q30 -43 97 -43z" />
    <glyph glyph-name="uniF7F9" unicode="&#xf7f9;" horiz-adv-x="896" 
d="M381 1281l-173 274h207l131 -274h-165zM460 -20q-207 0 -294 107q-73 90 -73 283v832h236v-829q0 -84 20 -117q28 -47 109 -47q76 1 103 48q19 34 19 116v829h236v-832q0 -190 -71 -281q-84 -108 -285 -109z" />
    <glyph glyph-name="uniF7FA" unicode="&#xf7fa;" horiz-adv-x="896" 
d="M361 1281l131 274h221l-180 -274h-172zM460 -20q-207 0 -294 107q-73 90 -73 283v832h236v-829q0 -84 20 -117q28 -47 109 -47q76 1 103 48q19 34 19 116v829h236v-832q0 -190 -71 -281q-84 -108 -285 -109z" />
    <glyph glyph-name="uniF7FB" unicode="&#xf7fb;" horiz-adv-x="896" 
d="M208 1281l138 241h221l138 -241h-190l-59 120l-57 -120h-191zM460 -20q-207 0 -294 107q-73 90 -73 283v832h236v-829q0 -84 20 -117q28 -47 109 -47q76 1 103 48q19 34 19 116v829h236v-832q0 -190 -71 -281q-84 -108 -285 -109z" />
    <glyph glyph-name="uniF7FC" unicode="&#xf7fc;" horiz-adv-x="896" 
d="M321 1305q-57 0 -82.5 27.5t-25.5 85.5q0 60 25.5 87.5t82.5 27.5q59 0 85 -27t26 -88q0 -59 -26 -86t-85 -27zM585 1305q-56 0 -82 27.5t-26 85.5q0 60 26 87.5t82 27.5q60 0 86 -27.5t26 -87.5q0 -58 -26.5 -85.5t-85.5 -27.5zM460 -20q-207 0 -294 107q-73 90 -73 283
v832h236v-829q0 -84 20 -117q28 -47 109 -47q76 1 103 48q19 34 19 116v829h236v-832q0 -190 -71 -281q-84 -108 -285 -109z" />
    <glyph glyph-name="uniF7FD" unicode="&#xf7fd;" horiz-adv-x="752" 
d="M287 1281l131 274h221l-180 -274h-172zM263 0v449l-251 753h229l142 -507l146 507h213l-243 -753v-449h-236z" />
    <glyph glyph-name="uniF7FE" unicode="&#xf7fe;" horiz-adv-x="900" 
d="M104 0v1200h231v-188h113q184 0 270.5 -87t86.5 -269v-92q0 -195 -122 -289q-100 -77 -263 -77h-85v-198h-231zM335 422h110q128 0 130 142v95q0 68 -31.5 99t-97.5 31h-111v-367z" />
    <glyph glyph-name="uniF7FF" unicode="&#xf7ff;" horiz-adv-x="752" 
d="M248 1305q-57 0 -82.5 27.5t-25.5 85.5q0 60 25.5 87.5t82.5 27.5q59 0 85 -27t26 -88q0 -59 -26 -86t-85 -27zM512 1305q-56 0 -82 27.5t-26 85.5q0 60 26 87.5t82 27.5q60 0 86 -27.5t26 -87.5q0 -58 -26.5 -85.5t-85.5 -27.5zM263 0v449l-251 753h229l142 -507
l146 507h213l-243 -753v-449h-236z" />
    <glyph glyph-name="s_t" unicode="&#xfb06;" horiz-adv-x="1535" 
d="M1501 242l15 -195q-90 -67 -207 -67q-171 0 -236 109q-53 89 -53 289v608h-125v217h125v38q-11 56 -46 83q-32 23 -71 23q-69 0 -102 -70q-22 -46 -22 -110v-327l-233 1q0 72 -17 108q-24 51 -84 51q-54 0 -87 -36q-28 -29 -28 -77q0 -42 30.5 -75.5t88.5 -70.5
q40 -25 110 -66q135 -77 195 -182q34 -58 34 -142q0 -179 -77 -269q-88 -102 -274 -102q-195 0 -281 111q-74 96 -74 293h233q0 -82 24 -125q29 -53 95 -53q56 0 85 34q25 29 25 81q0 66 -70 123q-29 24 -72 49q-129 78 -165 105q-86 65 -122 153q-20 48 -20 109
q0 190 63 270q74 94 257 94q88 0 138 -59q0 6 -0.5 18.5t-1.5 17.5q0 3 -0.5 7t-1 6.5t-0.5 3.5l-2 5q-1 -1 -1 -2q0 64 21 128q29 94 98 150q88 71 235 71q169 0 259 -74q98 -81 98 -248v-45h225v-217h-226l-2 -608q0 -103 16 -137q18 -41 76 -41q53 0 97 16q23 7 58 26z
" />
    <glyph glyph-name="M.001" horiz-adv-x="1246" 
d="M118 0v1521h307l200 -924l201 924h306v-1521h-238l24 1098l-190 -908h-205l-192 923l24 -1113h-237z" />
    <glyph glyph-name="V.001" horiz-adv-x="859" 
d="M269 0l-263 1522h239l184 -1261l184 1261h239l-263 -1522h-320z" />
    <glyph glyph-name="W.001" horiz-adv-x="1341" 
d="M231 0l-197 1522h239l119 -1164l129 1164h296l128 -1164l119 1164h240l-197 -1522h-306l-132 1135l-132 -1135h-306z" />
    <glyph glyph-name="f.001" horiz-adv-x="599" 
d="M127 0v986h-130v217h130v8q0 200 53 289q65 109 236 109q117 0 207 -67l-15 -195q-35 19 -58 27q-47 15 -97 15q-57 0 -76 -40q-16 -36 -16 -138v-8h228v-217h-228v-986h-234z" />
    <glyph glyph-name="DOT" horiz-adv-x="17" 
d="M233 268q-118 0 -118 115t118 115q62 0 90.5 -28t28.5 -87t-28.5 -87t-90.5 -28z" />
    <glyph glyph-name="Oslash.002" horiz-adv-x="899" 
d="M115 -80l46 177q-80 105 -80 311v706q0 199 73 301q90 127 295 127v-1q0 1 1 1q46 0 83 -6l17 63h231l-45 -172q81 -103 81 -313v-706q0 -199 -72 -301q-90 -127 -295 -127l-1 1v-1q-41 0 -88 7l-17 -67h-229zM319 707l156 603q-16 2 -25 2q-4 0 -5 1q-76 -1 -105 -62
q-21 -46 -21 -138v-406zM453 209q76 1 106 63q21 42 21 137v418l-160 -615q18 -2 29 -2h2q1 -1 2 -1z" />
    <glyph glyph-name="zero.fitted" 
d="M434 -20q-206 0 -289 126q-65 96 -65 298v713q0 202 66 300q83 125 288 125q206 0 289 -126q64 -97 64 -298v-713q0 -202 -65 -300q-83 -125 -288 -125zM317 751l234 298v68q0 99 -15 136q-27 60 -102 60q-76 0 -101 -59q-16 -38 -16 -137v-366zM434 210q75 0 101 59
q16 38 16 136v360l-234 -307v-53q0 -98 15 -134q25 -61 102 -61z" />
    <glyph glyph-name="one.fitted" 
d="M135 0v229h200v974q-32 -39 -98 -59q-42 -13 -124 -28v221q91 21 159 76q54 44 104 111h190v-1295h189v-229h-620z" />
    <glyph glyph-name="two.fitted" 
d="M78 0v208q25 130 152 333q58 92 109 165q129 183 182 313q30 73 30 142q0 73 -26 110q-30 42 -92 42q-68 0 -94 -51q-21 -38 -21 -113v-109h-237v133q0 175 83 270q89 102 273 102q351 0 351 -382q0 -149 -91 -326q-47 -88 -89 -151q-138 -209 -187 -300
q-41 -77 -65 -157h424v-229h-702z" />
    <glyph glyph-name="three.fitted" 
d="M433 -20q-172 0 -261 90q-97 99 -97 299v91h236v-105q0 -69 32.5 -107t89.5 -38q63 0 91 36q33 42 33 138v135q0 82 -38 120q-34 31 -101 31l-85 2v218l93 3q60 0 88 40q31 45 31 152v56q0 87 -20 125q-27 47 -94 47q-60 0 -85 -38t-25 -111v-103h-238v90q0 198 82 292
q87 99 272 99q179 0 262 -98q83 -101 83 -315q0 -162 -36 -241q-33 -73 -110 -103q90 -27 126 -118q31 -81 31 -238q0 -247 -85 -349q-83 -100 -275 -100z" />
    <glyph glyph-name="four.fitted" 
d="M483 0v239h-429v162l234 1120h243l-220 -1053h172v382h231v-382h100v-229h-100v-239h-231z" />
    <glyph glyph-name="five.fitted" 
d="M431 -20q-185 0 -273 97q-81 88 -81 263v129h237v-131q0 -128 113 -128q43 0 67.5 14.5t36.5 48.5q18 52 18 245q0 176 -20 229q-12 30 -33.5 42t-59.5 12q-100 0 -123 -100v-27h-236l21 847h641v-230h-408l-14 -350q56 80 203 80q91 0 144.5 -27.5t81.5 -88.5
q26 -57 35.5 -150t9.5 -243q0 -304 -86 -421q-81 -111 -274 -111z" />
    <glyph glyph-name="six.fitted" 
d="M434 -20q-206 0 -289 130q-64 99 -64 301v702q0 204 64 302q83 127 287 127q200 0 282 -125q60 -95 60 -277v-61h-237v43q0 88 -15 128q-24 63 -89 63q-75 0 -99 -63q-16 -43 -16 -154v-219q50 122 181 123q180 0 244 -130q45 -92 45 -302v-156q0 -202 -65 -303
q-84 -129 -289 -129zM434 210q74 0 101 68q16 44 16 151v122q0 108 -14 149q-24 70 -96 70q-75 0 -103 -65q-20 -47 -20 -155v-153q0 -91 17 -128q25 -59 99 -59z" />
    <glyph glyph-name="seven.fitted" 
d="M218 0l341 1291h-285v-172h-219v402h757v-181l-345 -1340h-249z" />
    <glyph glyph-name="eight.fitted" 
d="M434 -20q-200 0 -284 118q-70 96 -70 290v67q0 130 28.5 209.5t98.5 122.5q-117 81 -117 314v32q0 192 64 288q81 121 280 121q200 0 281 -121q63 -95 63 -288v-35q0 -106 -27 -181q-32 -86 -100 -131q73 -44 106 -129q30 -77 30 -190v-79q0 -196 -70 -291
q-85 -117 -283 -117zM434 904q70 0 92 64q14 39 14 126v21q0 98 -12 135q-22 63 -94 63q-74 0 -95 -61q-12 -34 -12 -136v-21q0 -91 13 -127q22 -64 94 -64zM434 210q71 0 98 57q19 42 19 139v60q0 99 -16 142q-27 67 -101 67t-99 -68q-18 -45 -18 -141v-61q0 -99 15 -135
q25 -60 102 -60z" />
    <glyph glyph-name="nine.fitted" 
d="M436 -19q-201 0 -281 126q-61 95 -61 277v60h237v-43q0 -86 16 -128q24 -63 88 -63q74 0 100 64q16 43 16 154v221q-49 -125 -182 -125q-181 0 -244 130q-45 91 -45 302v155q0 202 66 304q83 128 288 128q204 0 289 -129q64 -100 64 -302v-701q0 -204 -64 -302
q-84 -128 -287 -128zM427 753q71 0 101 59q21 42 23 143v140q0 110 -12 147q-23 72 -105 72q-75 0 -100 -69q-17 -44 -17 -151v-122q0 -106 15 -150q24 -69 95 -69z" />
    <glyph glyph-name="a.end" horiz-adv-x="922" 
d="M393 -20q-177 0 -247 128q-54 97 -54 301v385q0 206 53 302q70 127 246 127q128 0 180 -133v112h231v-1202h-231v111q-23 -61 -64 -95q-45 -36 -114 -36zM448 204q72 0 100 65q21 49 23 139v385q-2 90 -21 138q-29 67 -102 67q-78 0 -105 -61q-19 -41 -19 -140v-393
q0 -95 18 -137q27 -63 106 -63z" />
    <glyph glyph-name="uni1D20.001" horiz-adv-x="818" 
d="M248 0l-239 1203h239l161 -979l161 979h239l-239 -1203h-322z" />
    <glyph glyph-name="a.alt" horiz-adv-x="922" 
d="M393 -20q-168 0 -240 113q-59 94 -61 280v458q2 187 60 280q70 112 238 112q129 0 181 -134v113h231v-1202h-231v112q-48 -132 -178 -132zM448 204q59 0 89 46q23 34 30 97q4 57 4 131v296q-3 98 -17 142q-29 82 -106 82q-58 0 -87 -36q-24 -29 -31 -80q-6 -62 -6 -171
v-221q0 -144 17 -199q9 -36 31 -58q27 -29 76 -29z" />
    <glyph glyph-name="N.002" horiz-adv-x="990" 
d="M117 0v1521h297l271 -976l-8 976h237l3 -1521h-277l-294 1000l9 -1000h-238z" />
    <glyph glyph-name="Pallino" horiz-adv-x="17" 
d="M535 36q-14 0 -23 9.5t-9 23.5t9 23t23 9t23.5 -9t9.5 -23t-9.5 -23.5t-23.5 -9.5z" />
    <glyph glyph-name="uni1D0D.001" horiz-adv-x="1190" 
d="M107 0v1204h308l178 -662h6l180 662h308v-1204h-236l8 868l-164 -657h-198l-162 655l9 -866h-237z" />
    <glyph glyph-name="uni0274.001" horiz-adv-x="941" 
d="M108 0l-3 1202h63v1l198 -1l228 -657v657h237v-1202h-261l-225 673v-673h-237z" />
    <glyph glyph-name="uni1D21.002" horiz-adv-x="1354" 
d="M194 0l-179 1203h239l123 -979h9l123 979h339l123 -979h9l123 979h239l-179 -1203h-361l-123 972l-123 -972h-362z" />
    <glyph glyph-name="spessoresmall" horiz-adv-x="808" 
d="M691 1031l-21 44l113 57l22 -43zM652 931v65h171v-65h-171z" />
    <glyph glyph-name="i.trk" horiz-adv-x="472" 
d="M224 1346q-70 0 -103 28t-33 88t33 88t103 28q74 0 107 -28t33 -88t-33 -88t-107 -28zM110 0v1202h232v-1202h-232z" />
    <glyph glyph-name="zero.slash" horiz-adv-x="894" 
d="M447 -20q-206 0 -289 126q-65 96 -65 298v713q0 202 66 300q83 125 288 125q206 0 289 -126q64 -97 64 -298v-713q0 -202 -65 -300q-83 -125 -288 -125zM330 751l234 298v68q0 99 -15 136q-27 60 -102 60q-76 0 -101 -59q-16 -38 -16 -137v-366zM447 210q75 0 101 59
q16 38 16 136v360l-234 -307v-53q0 -98 15 -134q25 -61 102 -61z" />
    <glyph glyph-name="_480" horiz-adv-x="896" 
d="M543 -366l19 182q5 40 5 64q0 52 -25 76t-91 24q-9 0 -14 14q-4 12 -4 37q0 40 12 110q7 41 8 44l5 17q183 0 267 -86q75 -76 75 -219q0 -34 -5 -81l-21 -182h-231z" />
    <glyph glyph-name="A.fat" horiz-adv-x="876" 
d="M14 0l248 1521h355l244 -1521h-243l-39 269h-283l-39 -269h-243zM328 486h220l-103 719h-11z" />
    <glyph glyph-name="Oslashacute.001" horiz-adv-x="899" 
d="M294 1601l131 274h221l-180 -274h-172zM115 -80l46 177q-80 105 -80 311v706q0 199 73 301q90 127 295 127v-1q0 1 1 1q46 0 83 -6l17 63h231l-45 -172q81 -103 81 -313v-706q0 -199 -72 -301q-90 -127 -295 -127l-1 1v-1q-41 0 -88 7l-17 -67h-229zM319 707l156 603
q-16 2 -25 2q-4 0 -5 1q-76 -1 -105 -62q-21 -46 -21 -138v-406zM453 209q76 1 106 63q21 42 21 137v418l-160 -615q18 -2 29 -2h2q1 -1 2 -1z" />
    <glyph glyph-name="Oslash.fat" horiz-adv-x="912" 
d="M203 -84l-110 42l627 1650l106 -40z" />
    <glyph glyph-name="e.fat" horiz-adv-x="896" 
d="M451 -20q-208 0 -292 128q-67 102 -67 301v385q0 202 67 303q85 127 289 127q205 0 290 -122q66 -95 66 -284v-432q0 -191 -65 -285q-83 -121 -288 -121zM322 679l252 52v90q0 82 -18 121q-28 58 -108 58q-78 0 -106 -62q-20 -45 -20 -141v-118zM448 206q77 0 106 56
q20 39 20 122v141l-252 -48v-70q0 -95 19 -137q27 -64 107 -64z" />
    </font>
</defs>
</svg>
