<?xml version="1.0" standalone="no"?>
<!DOCTYPE svg PUBLIC "-//W3C//DTD SVG 1.1//EN" "http://www.w3.org/Graphics/SVG/1.1/DTD/svg11.dtd" >
<svg xmlns="http://www.w3.org/2000/svg" xmlns:xlink="http://www.w3.org/1999/xlink" version="1.1">
<metadata>
Created by FontForge 20170731 at Tue Feb  6 14:49:52 2018
 By Aleksey,,,
Copyright (c) 2017 by Studio Kmzero &#38; Zetafonts. All rights reserved.
</metadata>
<defs>
<font id="HeadingPro-Regular" horiz-adv-x="855" >
  <font-face 
    font-family="Heading Pro"
    font-weight="700"
    font-stretch="normal"
    units-per-em="2048"
    panose-1="2 0 5 6 0 0 0 2 0 4"
    ascent="1638"
    descent="-410"
    x-height="1202"
    cap-height="1521"
    bbox="-296 -615 2001 1958"
    underline-thickness="102"
    underline-position="-409"
    unicode-range="U+000D-FB06"
  />
<missing-glyph horiz-adv-x="1222" 
 />
    <glyph glyph-name="ff" unicode="ff" horiz-adv-x="1158" 
d="M136 0v1029h-128v174h128v8q0 209 47 292q61 107 226 107q106 0 191 -59l-14 -157q-70 39 -152 39q-71 0 -92 -50q-18 -39 -18 -172v-8h390v8q0 207 48 292q61 107 226 107q106 0 191 -59l-14 -157q-70 39 -152 39q-72 0 -93 -50q-17 -40 -17 -172v-8h240v-174h-240
v-1029h-189v1029h-390v-1029h-188z" />
    <glyph glyph-name="fi" unicode="fi" horiz-adv-x="975" 
d="M141 0v1029h-128v174h128v8q0 209 47 292q61 107 227 107q105 0 180 -52l-14 -157q-58 32 -141 32q-72 0 -93 -50q-18 -39 -18 -172v-8h517v-1203h-187v1029h-330v-1029h-188zM751 1383q-112 0 -112 95q0 98 112 98q61 0 88.5 -24t27.5 -74q0 -49 -27.5 -72t-88.5 -23z
" />
    <glyph glyph-name="fl" unicode="fl" horiz-adv-x="994" 
d="M141 0v1029h-128v174h128v8q0 213 63 301q81 116 307 116q105 0 229 -31q97 -25 137 -52v-1545h-187v1439q-100 20 -165 20q-128 0 -166 -62q-30 -48 -30 -186v-8h239v-174h-239v-1029h-188z" />
    <glyph glyph-name="ffi" unicode="ffi" horiz-adv-x="1588" 
d="M136 0v1029h-128v174h128v8q0 209 47 292q61 107 226 107q106 0 191 -59l-14 -157q-70 39 -152 39q-71 0 -92 -50q-18 -39 -18 -172v-8h390v8q0 207 48 292q61 107 226 107q106 0 191 -59l-14 -157q-70 39 -152 39q-72 0 -93 -50q-17 -40 -17 -172v-8h391v-1h172v-1202
h-187v1029h-376v-1029h-189v1029h-390v-1029h-188zM1371 1383q-112 0 -112 95q0 98 112 98q61 0 88.5 -24t27.5 -74q0 -49 -27.5 -72t-88.5 -23z" />
    <glyph glyph-name="ffl" unicode="ffl" horiz-adv-x="1597" 
d="M136 0v1029h-128v174h128v8q0 209 47 292q61 107 226 107q106 0 191 -59l-14 -157q-70 39 -152 39q-71 0 -92 -50q-18 -39 -18 -172v-8h390v8q0 207 48 292q61 107 226 107q106 0 191 -59l-14 -157q-70 39 -152 39q-72 0 -93 -50q-17 -40 -17 -172v-8h381v365h188v-1568
h-188v1029h-381v-1029h-189v1029h-390v-1029h-188z" />
    <glyph glyph-name="f_t" unicode="ft" horiz-adv-x="1202" 
d="M994 -19q-166 0 -226 107q-47 83 -47 292v649h-397v-1029h-188v1029h-128v174h128v8q0 209 47 292q61 107 226 107q106 0 191 -59l-14 -157q-70 39 -152 39q-71 0 -92 -50q-18 -39 -18 -172v-8h397v388h188v-388h240v-174h-240v-649q0 -133 18 -172q21 -50 92 -50
q82 0 152 39l14 -157q-85 -59 -191 -59z" />
    <glyph glyph-name="f_j" unicode="fj" horiz-adv-x="1010" 
d="M615 -408q-109 0 -190 59l14 157q70 -39 151 -39q71 0 94 50q17 40 17 172v1038h-377v-1029h-188v1029h-128v174h128v8q0 209 47 292q61 107 226 107q106 0 191 -59l-14 -157q-70 39 -152 39q-71 0 -92 -50q-18 -39 -18 -172v-8h418v-1h147v-1211q0 -209 -47 -292
q-60 -107 -227 -107zM792 1383q-112 0 -112 95q0 98 112 98q61 0 88.5 -24t27.5 -74q0 -49 -27.5 -72t-88.5 -23z" />
    <glyph glyph-name=".notdef" horiz-adv-x="1222" 
 />
    <glyph glyph-name=".null" horiz-adv-x="0" 
 />
    <glyph glyph-name="uni000D" unicode="&#xd;" horiz-adv-x="378" 
 />
    <glyph glyph-name="NULL" horiz-adv-x="0" 
 />
    <glyph glyph-name="NULL" horiz-adv-x="0" 
 />
    <glyph glyph-name="space" unicode=" " horiz-adv-x="378" 
 />
    <glyph glyph-name="exclam" unicode="!" horiz-adv-x="451" 
d="M145 389l-28 1132h216l-26 -1132h-162zM223 -18q-59 0 -86.5 26t-27.5 81q0 57 27 84t87 27q62 0 89.5 -26.5t27.5 -84.5q0 -55 -27.5 -81t-89.5 -26z" />
    <glyph glyph-name="quotedbl" unicode="&#x22;" horiz-adv-x="645" 
d="M101 1113l-13 408h176l-15 -408h-148zM388 1113l-14 408h175l-14 -408h-147z" />
    <glyph glyph-name="numbersign" unicode="#" horiz-adv-x="903" 
d="M123 0l53 459h-115l6 129h124l46 389h-117l6 129h126l49 417h160l-50 -417h152l49 417h160l-50 -417h121l-6 -129h-130l-46 -389h123l-7 -129h-131l-54 -459h-157l53 459h-153l-54 -459h-158zM350 588h153l45 389h-152z" />
    <glyph glyph-name="dollar" unicode="$" horiz-adv-x="868" 
d="M333 -117v106q-149 23 -207 127q-51 90 -51 263v65h190v-61q0 -117 31 -164q36 -54 132 -54q89 0 129 59q35 50 35 147v11q0 97 -29 156q-29 57 -105 105l-145 90q-132 83 -181 175q-45 83 -45 238v24q0 310 246 360v108h191v-106q253 -45 253 -367v-83l-191 1l-1 101
q0 78 -35 123q-39 50 -116 50q-83 0 -123 -58q-35 -50 -33 -142l1 -32q3 -70 38 -127.5t97 -93.5l135 -78q125 -73 180 -177q49 -93 54 -239v-39q0 -335 -259 -381v-107h-191z" />
    <glyph glyph-name="percent" unicode="%" horiz-adv-x="1502" 
d="M342 609q-143 0 -203 77q-54 68 -54 216v300q0 172 45 243q56 91 212 91q155 0 211 -90q44 -71 44 -244v-257q0 -173 -45 -245q-56 -91 -210 -91zM434 0l453 1521h182l-453 -1521h-182zM342 762q49 0 69 32t20 105v305q0 97 -12 132q-19 48 -77 48q-60 0 -79 -48
q-12 -31 -12 -131v-263q0 -97 13 -131q18 -49 78 -49zM1163 -23q-143 0 -203 77q-54 68 -54 216v299q0 173 45 244q56 90 212 90t212 -90q44 -71 44 -244v-256q0 -173 -45 -245q-56 -91 -211 -91zM1163 129q49 0 69.5 32.5t20.5 105.5v304q0 97 -13 132q-19 48 -77 48
q-60 0 -79 -48q-12 -31 -12 -131v-262q0 -96 14 -132q18 -49 77 -49z" />
    <glyph glyph-name="ampersand" unicode="&#x26;" horiz-adv-x="919" 
d="M456 -18q-196 0 -280 119q-69 98 -69 289v134q0 109 47 184q47 74 124 92q-81 23 -116.5 94t-35.5 193v92q0 342 339 342h203l1 -176h-199q-79 0 -118 -52q-34 -45 -34 -128l-1 -94q-1 -98 36.5 -144.5t122.5 -46.5h139v116h191v-116h67v-172h-67v-319q0 -190 -68 -287
q-84 -120 -282 -120zM455 165q99 0 136 74q24 48 24 163v304h-151q-78 0 -123 -53q-43 -51 -43 -129v-121q0 -121 28 -172q36 -66 129 -66z" />
    <glyph glyph-name="quotesingle" unicode="'" horiz-adv-x="352" 
d="M101 1113l-13 408h176l-15 -408h-148z" />
    <glyph glyph-name="parenleft" unicode="(" horiz-adv-x="544" 
d="M438 -98q-140 0 -218 65q-63 52 -87 151q-17 69 -17 173v938q0 95 12 152q22 102 84 161q80 75 226 75h21v-169h-21q-62 0 -96 -46q-27 -36 -34 -94q-5 -32 -5 -77v-948q0 -93 25 -143q32 -68 110 -68h21v-170h-21z" />
    <glyph glyph-name="parenright" unicode=")" horiz-adv-x="537" 
d="M81 -98v170h21q77 0 111 68q24 51 24 143v948q0 45 -4 77q-9 59 -35 94q-34 46 -96 46h-21v169h21q145 0 227 -75q62 -59 83 -161q12 -57 12 -152v-938q0 -108 -16 -173q-24 -98 -88 -151q-78 -65 -218 -65h-21z" />
    <glyph glyph-name="asterisk" unicode="*" horiz-adv-x="861" 
d="M586 806l-157 241l-158 -240l-121 88l180 224l-276 74l45 143l269 -102l-15 287h152l-16 -287l268 103l47 -144l-277 -74l181 -223z" />
    <glyph glyph-name="plus" unicode="+" horiz-adv-x="833" 
d="M334 382v237h-239v168h239v237h166v-237h238v-168h-238v-237h-166z" />
    <glyph glyph-name="comma" unicode="," horiz-adv-x="414" 
d="M229 -223l-87 48q31 46 44 80q11 30 18 77q-110 0 -110 107q0 111 114 111q119 0 119 -132q0 -101 -31 -179q-25 -63 -67 -112z" />
    <glyph glyph-name="hyphen" unicode="-" horiz-adv-x="569" 
d="M31 507v167h506v-167h-506z" />
    <glyph glyph-name="period" unicode="." horiz-adv-x="425" 
d="M208 -18q-59 0 -86.5 26.5t-27.5 80.5q0 57 27.5 84t86.5 27q63 0 90.5 -26.5t27.5 -84.5q0 -55 -27.5 -81t-90.5 -26z" />
    <glyph glyph-name="slash" unicode="/" horiz-adv-x="703" 
d="M32 -80l452 1679h186l-452 -1679h-186z" />
    <glyph glyph-name="zero" unicode="0" horiz-adv-x="851" 
d="M427 -18q-204 0 -282 133q-55 94 -55 299v692q0 135 21 214q26 103 96 158q79 62 220 62q144 0 223 -62q67 -53 95 -160q20 -80 20 -211v-692q0 -205 -57 -302q-77 -131 -281 -131zM427 165q96 0 128 73q20 47 20 178v690q0 128 -18 175q-29 76 -130 76q-96 0 -126 -73
q-20 -48 -20 -179v-690q0 -128 18 -174q30 -76 128 -76z" />
    <glyph glyph-name="one" unicode="1" horiz-adv-x="537" 
d="M233 0v1271q-32 -42 -103 -77q-59 -29 -128 -44v181q87 22 156 78q54 44 105 114h157v-1523h-187z" />
    <glyph glyph-name="two" unicode="2" horiz-adv-x="841" 
d="M88 0v165q20 148 149 350q51 81 114 169q139 193 194 328q33 80 33 160q0 185 -150 185q-85 0 -119 -62q-26 -46 -26 -139v-101h-191v117q0 174 76 267q84 103 263 103q168 0 252.5 -89.5t84.5 -276.5q0 -167 -102 -351q-46 -83 -99 -158q-138 -200 -197 -315
q-41 -80 -61 -169h454v-183h-675z" />
    <glyph glyph-name="three" unicode="3" horiz-adv-x="837" 
d="M414 -18q-166 0 -251 92q-90 98 -90 291v85h189v-107q0 -84 40.5 -131t111.5 -47q80 0 115 45q39 50 39 176v128q0 104 -47 146q-37 33 -117 33l-84 1v176l90 2q71 0 107 44q41 50 41 164v63q0 112 -29 159q-34 55 -116 55q-78 0 -110.5 -46.5t-32.5 -145.5v-94h-191v84
q0 191 75 284q80 101 263 101q171 0 251 -96t80 -312q0 -164 -39 -246q-36 -75 -114 -101q92 -23 128 -107q35 -81 35 -243q0 -250 -78 -351q-79 -102 -266 -102z" />
    <glyph glyph-name="four" unicode="4" horiz-adv-x="861" 
d="M492 0v255h-432v135l254 1131h195l-244 -1082h227v439h186v-439h116v-184h-116v-255h-186z" />
    <glyph glyph-name="five" unicode="5" horiz-adv-x="861" 
d="M437 -18q-176 0 -259 94q-76 86 -76 256v118h191v-116q0 -169 141 -169q54 0 84.5 17t46.5 56q24 59 24 275q0 192 -27 254q-15 34 -42.5 48.5t-72.5 14.5q-63 0 -103 -31t-52 -91v-34h-190l21 847h609v-184h-421l-16 -419q56 90 212 90q90 0 144 -26.5t84 -85.5
q28 -57 38 -148.5t10 -239.5q0 -304 -81 -418q-41 -58 -105 -83t-160 -25z" />
    <glyph glyph-name="six" unicode="6" horiz-adv-x="839" 
d="M423 -18q-141 0 -221 66q-70 56 -96 163q-21 80 -21 214v674q0 135 21 215q26 106 96 162q80 64 219 64q137 0 216 -63q65 -54 92 -153q20 -75 20 -184v-56h-191v43q0 101 -18 150q-30 80 -118 80q-94 0 -125 -81q-20 -53 -20 -190v-231q50 136 199 137q122 0 192 -65
q57 -55 79 -165q14 -77 14 -215v-121q0 -208 -57 -307q-79 -137 -281 -137zM423 165q95 0 128 86q20 54 20 188v95q0 128 -18 184q-29 90 -119 90q-98 0 -132 -83q-25 -62 -25 -192v-137q0 -109 22 -157q32 -74 124 -74z" />
    <glyph glyph-name="seven" unicode="7" horiz-adv-x="789" 
d="M190 0l354 1337h-318v-185h-178v369h700v-147l-357 -1374h-201z" />
    <glyph glyph-name="eight" unicode="8" horiz-adv-x="829" 
d="M416 -18q-195 0 -274 120q-63 95 -63 287v53q0 135 28 212q30 88 107 133q-70 43 -99 131q-25 76 -25 186v26q0 191 56 284q76 126 270 126q196 0 272 -126q55 -91 55 -285v-28q0 -107 -25 -179q-33 -91 -106 -135q79 -44 113 -134q29 -79 29 -193v-70q0 -194 -64 -289
q-80 -119 -274 -119zM416 881q89 0 118 76q18 46 18 142v17q0 122 -15 165q-28 76 -121 76q-92 0 -119 -75q-16 -42 -16 -165v-17q0 -100 17 -143q29 -76 118 -76zM416 165q92 0 124 68q24 50 24 170v48q0 112 -21 165q-34 81 -127 81q-92 0 -125 -81q-21 -53 -21 -166v-48
q0 -117 19 -163q30 -74 127 -74z" />
    <glyph glyph-name="nine" unicode="9" horiz-adv-x="817" 
d="M406 -17q-138 0 -215 64q-65 53 -92 153q-20 74 -20 183v56h190v-43q0 -100 19 -149q32 -81 117 -81q94 0 127 82q20 53 20 189v231q-24 -66 -69 -100q-51 -37 -131 -37q-179 0 -242 139q-44 96 -44 306v121q0 206 57 307q78 137 281 137q141 0 222 -65q68 -56 96 -164
q20 -83 20 -214v-674q0 -135 -20 -215q-28 -108 -96 -162q-80 -64 -220 -64zM394 714q96 0 132 84q26 60 26 191v134q0 109 -21 159q-34 76 -127 76q-94 0 -126 -85q-20 -55 -20 -189v-96q0 -131 17 -183q29 -91 119 -91z" />
    <glyph glyph-name="colon" unicode=":" horiz-adv-x="365" 
d="M179 999q-59 0 -86.5 26.5t-27.5 80.5q0 57 27.5 84t86.5 27q63 0 90.5 -26.5t27.5 -84.5q0 -55 -27.5 -81t-90.5 -26zM179 -18q-59 0 -86.5 26.5t-27.5 80.5q0 57 27.5 84t86.5 27q63 0 90.5 -26.5t27.5 -84.5q0 -55 -27.5 -81t-90.5 -26z" />
    <glyph glyph-name="semicolon" unicode=";" horiz-adv-x="367" 
d="M180 999q-59 0 -86.5 26.5t-27.5 80.5q0 57 27.5 84t86.5 27q63 0 90.5 -26.5t27.5 -84.5q0 -55 -27.5 -81t-90.5 -26zM201 -223l-87 48q31 46 44 80q11 30 18 77q-110 0 -110 107q0 111 114 111q119 0 119 -132q0 -101 -31 -179q-25 -63 -67 -112z" />
    <glyph glyph-name="less" unicode="&#x3c;" horiz-adv-x="682" 
d="M587 247l-536 381v149l536 381v-208l-338 -248l338 -247v-208z" />
    <glyph glyph-name="equal" unicode="=" horiz-adv-x="833" 
d="M95 817v168h643v-168h-643zM95 423v168h643v-168h-643z" />
    <glyph glyph-name="greater" unicode="&#x3e;" horiz-adv-x="682" 
d="M97 247v208l338 247l-338 248v208l536 -381v-149z" />
    <glyph glyph-name="question" unicode="?" horiz-adv-x="844" 
d="M322 389l-1 90q-1 132 59 256q25 52 57 103q73 116 101 199q17 54 17 115q0 102 -32.5 151t-109.5 49q-128 0 -137 -138l-7 -121h-183l-2 82q0 169 71 259q82 103 256 103q164 0 245 -88q89 -97 89 -299q0 -134 -66 -263q-29 -57 -62 -106q-79 -118 -110 -197
q-19 -49 -21 -107l-1 -88h-163zM400 -18q-59 0 -86 26t-27 81q0 57 27 84t86 27q63 0 91 -26.5t28 -84.5q0 -55 -28 -81t-91 -26z" />
    <glyph glyph-name="at" unicode="@" horiz-adv-x="1200" 
d="M700 -245q-284 0 -431 156q-159 167 -159 509v449q0 361 139 525q125 146 376 146q230 0 342 -157q96 -136 96 -357v-895h-169v93q-44 -111 -160 -111q-156 0 -214 117q-42 82 -42 258v284q0 179 41 260q58 115 214 115q116 0 161 -111q-2 159 -67 247q-68 91 -202 91
q-179 0 -261 -118q-83 -120 -83 -388v-447q0 -274 135 -401q106 -101 284 -101h360v-164h-360zM770 276q74 0 102 67q20 46 22 144v259q0 110 -17 159q-27 77 -107 77q-78 0 -104 -63q-17 -41 -17 -147v-286q0 -106 16 -145q25 -65 105 -65z" />
    <glyph glyph-name="A" unicode="A" horiz-adv-x="852" 
d="M7 0l275 1521h266l275 -1521h-193l-49 307h-331l-49 -307h-194zM278 481h275l-138 855z" />
    <glyph glyph-name="B" unicode="B" horiz-adv-x="915" 
d="M127 1v1520h341q338 0 338 -342v-92q0 -121 -35.5 -192.5t-115.5 -94.5q78 -18 125 -92q46 -74 46 -184v-134q0 -210 -84 -300q-83 -89 -270 -89h-345zM317 880h130q92 0 131 46.5t38 144.5l-1 94q0 83 -34 128q-39 52 -118 52h-146v-465zM317 184h154q86 0 122 36
q43 45 42 167v137q0 78 -43 129q-45 53 -123 53h-152v-522z" />
    <glyph glyph-name="C" unicode="C" horiz-adv-x="870" 
d="M442 -18q-205 0 -290 136q-64 103 -64 302v681q0 202 65 305q84 134 289 134q140 0 226 -63q72 -55 103 -157q25 -82 25 -199v-65h-192v64q0 112 -27 164q-38 73 -135 73q-99 0 -135 -76q-27 -59 -27 -181v-679q0 -124 25 -177q36 -79 137 -79q95 0 133 70q29 54 29 166
v65h192v-66q0 -118 -26 -199q-33 -103 -104 -156q-83 -63 -224 -63z" />
    <glyph glyph-name="D" unicode="D" horiz-adv-x="908" 
d="M126 0v1520h344q201 0 285 -130q66 -104 66 -303v-654q0 -201 -66 -303q-85 -130 -287 -130h-342zM316 183h152q89 0 126.5 60.5t37.5 190.5v652q0 127 -34 185q-36 61 -121 65h-161v-1153z" />
    <glyph glyph-name="E" unicode="E" horiz-adv-x="795" 
d="M122 0v1520l613 1v-184l-422 -1v-467h353v-184h-353v-502h422v-183h-613z" />
    <glyph glyph-name="F" unicode="F" horiz-adv-x="782" 
d="M126 0v1520h608v-184h-417v-509h345v-184h-345v-643h-191z" />
    <glyph glyph-name="G" unicode="G" horiz-adv-x="879" 
d="M441 -18q-204 0 -290 136q-63 100 -63 302v681q0 202 65 305q84 134 289 134q202 0 289 -134q64 -100 64 -285v-65h-191v64q0 111 -27 163q-39 74 -135 74q-99 0 -136 -76q-27 -56 -27 -181v-679q0 -124 25 -177q36 -79 137 -79q96 0 134 70q29 54 29 166v212h-171v182
h362v-395q0 -185 -65 -286q-87 -132 -289 -132z" />
    <glyph glyph-name="H" unicode="H" horiz-adv-x="968" 
d="M127 0v1521h191v-662h333v662h191v-1521h-191v674h-333v-674h-191z" />
    <glyph glyph-name="I" unicode="I" horiz-adv-x="446" 
d="M128 0v1521h191v-1521h-191z" />
    <glyph glyph-name="J" unicode="J" horiz-adv-x="642" 
d="M191 -16q-119 0 -185 54l58 161q25 -17 52 -24q30 -8 75 -8q86 0 116 45t30 171v953h-219v184h409v-1145q0 -194 -61 -282q-77 -109 -275 -109z" />
    <glyph glyph-name="K" unicode="K" horiz-adv-x="905" 
d="M126 0v1521h191v-662h107l254 661h205l-279 -746l302 -774h-205l-272 674h-112v-674h-191z" />
    <glyph glyph-name="L" unicode="L" horiz-adv-x="735" 
d="M126 0v1521h190v-1339h407v-182h-597z" />
    <glyph glyph-name="M" unicode="M" horiz-adv-x="1227" 
d="M128 0v1521h259l229 -1007l230 1007h258v-1521h-181l11 1245l-230 -1036h-175l-232 1041l12 -1250h-181z" />
    <glyph glyph-name="N" unicode="N" horiz-adv-x="1004" 
d="M126 0v1521h245l326 -1162v1162h182l4 -1521h-232l-344 1172v-1172h-181z" />
    <glyph glyph-name="O" unicode="O" horiz-adv-x="883" 
d="M441 -18q-205 0 -290 136q-63 101 -63 302v681q0 204 65 305q84 134 288 134v-1l1 1q206 0 290 -135q64 -103 64 -304v-680q0 -202 -65 -305q-84 -134 -289 -134l-1 1v-1zM441 165h1q99 0 136 77q27 55 27 180v678q0 123 -25 178q-37 78 -138 78q-4 0 -5 1
q-96 -1 -131 -77q-27 -59 -27 -180v-679q0 -124 25 -177q36 -79 137 -79z" />
    <glyph glyph-name="P" unicode="P" horiz-adv-x="888" 
d="M128 0v1521h332q170 0 256 -80q96 -90 96 -285v-230q0 -208 -95 -294q-84 -77 -266 -77h-132v-555h-191zM319 737h130q94 0 134 43q38 42 38 146v230q0 91 -37.5 135.5t-122.5 44.5h-142v-599z" />
    <glyph glyph-name="Q" unicode="Q" horiz-adv-x="883" 
d="M364 -176v163q-160 23 -226 153q-50 99 -50 280v681q0 204 65 305q84 134 288 134v-1l1 1q206 0 290 -135q64 -103 64 -304v-680q0 -178 -49 -277q-62 -126 -213 -154v-166h-170zM441 165h1q99 0 136 77q27 55 27 180v678q0 123 -25 178q-37 78 -138 78q-4 0 -5 1
q-96 -1 -131 -77q-27 -59 -27 -180v-679q0 -124 25 -177q36 -79 137 -79z" />
    <glyph glyph-name="R" unicode="R" horiz-adv-x="919" 
d="M127 0v1520h345q187 0 270 -89q85 -91 85 -300v-157q0 -95 -47 -179q-41 -74 -121 -126q63 -41 93 -102q29 -61 41 -175l20 -214q8 -84 54 -178h-200q-12 27 -24 70q-15 51 -21 103l-22 215q-11 112 -64 172q-44 48 -105 48h-113v-608h-191zM318 792h152q77 0 122 53
q44 52 44 129v159q0 121 -44 167q-36 36 -120 36h-154v-544z" />
    <glyph glyph-name="S" unicode="S" horiz-adv-x="844" 
d="M424 -18q-205 0 -286 108q-69 89 -69 289v87h190v-83q0 -117 31 -164q36 -54 132 -54q89 0 129 59q35 50 35 147v11q0 97 -29 156q-29 57 -105 105l-145 90q-132 83 -181 175q-45 83 -45 238v24q0 370 349 370q176 0 262 -98q81 -94 81 -277v-109h-190l-1 128
q-2 79 -36 123q-40 50 -118 50q-83 0 -123 -58q-35 -50 -33 -142l2 -32q2 -69 36.5 -126.5t97.5 -94.5l135 -78q125 -73 180 -177q49 -93 54 -239v-39q0 -191 -83 -287q-88 -102 -270 -102z" />
    <glyph glyph-name="T" unicode="T" horiz-adv-x="738" 
d="M272 0v1336h-261v184h714v-184h-261v-1336h-192z" />
    <glyph glyph-name="U" unicode="U" horiz-adv-x="918" 
d="M460 -18q-204 0 -285 109q-67 89 -67 282v1147h190v-1142q0 -112 24 -154q33 -59 138 -59q106 0 139 59q24 42 24 154v1142h190v-1147q0 -193 -66 -282q-82 -109 -287 -109z" />
    <glyph glyph-name="V" unicode="V" 
d="M293 0l-280 1521h193l220 -1342l220 1342h193l-280 -1521h-266z" />
    <glyph glyph-name="W" unicode="W" horiz-adv-x="1324" 
d="M242 0l-210 1521h193l148 -1263l185 1263h203l185 -1263l148 1263h193l-209 -1521h-242l-176 1169l-176 -1169h-242z" />
    <glyph glyph-name="X" unicode="X" horiz-adv-x="858" 
d="M4 0l297 790l-272 731h209l193 -538l192 538h209l-279 -733l300 -788h-213l-216 594l-207 -594h-213z" />
    <glyph glyph-name="Y" unicode="Y" horiz-adv-x="803" 
d="M309 0v576l-306 944h209l195 -677l203 677h191l-302 -944v-576h-190z" />
    <glyph glyph-name="Z" unicode="Z" horiz-adv-x="760" 
d="M52 0v171l445 1165h-423v184h638v-161l-451 -1176h450v-183h-659z" />
    <glyph glyph-name="bracketleft" unicode="[" horiz-adv-x="540" 
d="M116 -98v1715h343v-169h-156v-1376h156v-170h-343z" />
    <glyph glyph-name="backslash" unicode="\" horiz-adv-x="703" 
d="M484 -80l-452 1679h186l452 -1679h-186z" />
    <glyph glyph-name="bracketright" unicode="]" horiz-adv-x="540" 
d="M81 -98v170h156v1376h-156v169h343v-1715h-343z" />
    <glyph glyph-name="asciicircum" unicode="^" horiz-adv-x="993" 
d="M96 852l259 747h283l259 -747h-196l-192 576h-26l-191 -576h-196z" />
    <glyph glyph-name="underscore" unicode="_" horiz-adv-x="830" 
d="M31 -192v156h772v-156h-772z" />
    <glyph glyph-name="grave" unicode="`" horiz-adv-x="448" 
d="M235 1283l-164 263h172l130 -263h-138z" />
    <glyph glyph-name="a" unicode="a" horiz-adv-x="890" 
d="M390 -19q-171 0 -244 111q-60 91 -60 265q0 167 51 240q68 95 251 95q111 0 199 -32v122q0 129 -22 182q-33 78 -131 78q-90 0 -124 -70q-24 -49 -24 -145v-20h-187v18q0 176 60 271q79 126 274 126q191 0 273 -113q68 -93 68 -274v-835h-186v131q-26 -73 -70 -108
q-52 -42 -128 -42zM430 161q88 0 127 78q30 60 30 167v91q-57 38 -160 38q-97 0 -130 -58q-23 -40 -23 -123q0 -92 30 -136q37 -57 126 -57z" />
    <glyph glyph-name="b" unicode="b" horiz-adv-x="895" 
d="M508 -18q-143 0 -196 144v-126h-187v1568h187v-490q49 144 194 144q185 0 253 -137q48 -100 48 -305v-356q0 -208 -48 -306q-68 -136 -251 -136zM466 162q97 0 131 78q22 53 22 182v361q0 128 -20 179q-33 80 -133 80q-89 0 -126 -81q-26 -58 -28 -179v-360
q0 -119 25 -177q36 -83 129 -83z" />
    <glyph glyph-name="c" unicode="c" horiz-adv-x="846" 
d="M431 -18q-142 0 -223 65q-70 55 -98 162q-22 84 -22 214v302v55q0 36 1 55q2 182 69 274q82 113 271 113q203 0 284 -126q57 -92 57 -271v-18h-186v20q0 102 -21 145q-34 70 -134 70q-99 0 -131 -78q-22 -53 -22 -182v-272q0 -133 4 -196q7 -68 37 -106q36 -46 112 -46
q97 0 132 67q23 46 23 149v17h186v-16q0 -113 -21 -190q-27 -96 -97 -148q-80 -59 -221 -59z" />
    <glyph glyph-name="d" unicode="d" horiz-adv-x="890" 
d="M386 -19q-186 0 -252 137q-49 99 -49 305v356q0 138 18 216q25 108 84 162q70 64 197 64q143 0 195 -142v489h187v-1568h-187v122q-52 -141 -193 -141zM426 161q84 0 121 70q27 51 32 158v432q-6 105 -31 152q-36 68 -122 68q-98 0 -130 -78q-23 -53 -23 -182v-361
q0 -129 21 -179q32 -80 132 -80z" />
    <glyph glyph-name="e" unicode="e" horiz-adv-x="853" 
d="M430 -18q-206 0 -285 137q-58 100 -58 304v356q0 132 22 216q28 108 98 163q82 64 221 64q204 0 284 -127q57 -93 57 -280v-225l-496 -88v-80q0 -129 21 -179q33 -81 134 -81q98 0 132 67q23 46 23 154v23h186v-22q0 -188 -57 -279q-79 -123 -282 -123zM273 665l310 59
v93q0 109 -21 154q-33 71 -134 71q-98 0 -131 -78q-24 -55 -24 -183v-116z" />
    <glyph glyph-name="f" unicode="f" horiz-adv-x="543" 
d="M140 0v1029h-124v174h124v8q0 209 47 292q61 107 227 107q76 0 161 -39l-33 -156q-51 18 -103 18q-72 0 -93 -50q-18 -39 -18 -172v-8h169v-174h-169v-1029h-188z" />
    <glyph glyph-name="g" unicode="g" horiz-adv-x="880" 
d="M465 -408q-181 0 -274 49l14 158q31 -14 105 -23q59 -7 129 -7q76 0 108 50q33 50 33 172v131q-52 -141 -193 -141q-186 0 -252 137q-49 99 -49 305v356q0 138 18 216q25 108 84 162q70 64 197 64q143 0 195 -142v123h188v-1211q0 -199 -62 -291q-72 -108 -241 -108z
M427 161q84 0 121 70q27 51 32 158v432q-6 105 -31 152q-36 68 -122 68q-97 0 -130 -78q-23 -53 -23 -182v-361q0 -129 21 -179q32 -80 132 -80z" />
    <glyph glyph-name="h" unicode="h" horiz-adv-x="908" 
d="M120 0v1567h187v-492q49 145 197 145q181 0 249 -137q47 -98 47 -304v-779h-187v782q0 127 -20 179q-33 80 -134 80q-94 0 -128 -95q-24 -64 -24 -199v-747h-187z" />
    <glyph glyph-name="i" unicode="i" horiz-adv-x="425" 
d="M212 1383q-112 0 -112 95q0 98 112 98q61 0 88.5 -24t27.5 -74q0 -49 -27.5 -72t-88.5 -23zM120 0v1202h187v-1202h-187z" />
    <glyph glyph-name="j" unicode="j" horiz-adv-x="427" 
d="M210 1383q-112 0 -112 95q0 98 112 98q61 0 88.5 -24t27.5 -74q0 -49 -27.5 -72t-88.5 -23zM33 -408q-109 0 -190 59l14 157q70 -39 151 -39q71 0 94 50q17 40 17 172v1211h188v-1211q0 -209 -47 -292q-60 -107 -227 -107z" />
    <glyph glyph-name="k" unicode="k" horiz-adv-x="849" 
d="M118 0v1568h187v-873h98l215 507h192l-268 -601l303 -601h-208l-236 512h-96v-512h-187z" />
    <glyph glyph-name="l" unicode="l" horiz-adv-x="426" 
d="M118 0v1568h188v-1568h-188z" />
    <glyph glyph-name="m" unicode="m" horiz-adv-x="1403" 
d="M120 0v1202h187v-124q79 142 231 142q93 0 151 -42q53 -40 78 -111q78 153 251 153q177 0 236 -137q40 -92 40 -304v-779h-188v820q0 112 -20 155q-31 66 -123 66q-94 0 -132 -85q-29 -62 -31 -185v-771h-187v816q0 114 -20 157q-32 68 -123 68q-94 0 -132 -85
q-29 -62 -31 -185v-771h-187z" />
    <glyph glyph-name="n" unicode="n" horiz-adv-x="908" 
d="M120 0v1202h187v-133q28 67 84 107q62 44 138 44q121 0 185 -64q53 -54 73 -164q13 -70 13 -213v-779h-187v782q0 133 -18 179q-32 80 -131 80q-93 0 -130 -95q-27 -69 -27 -199v-747h-187z" />
    <glyph glyph-name="o" unicode="o" 
d="M429 -18q-206 0 -285 137q-58 100 -58 304v356q0 132 22 216q28 108 98 163q82 64 221 64q205 0 284 -137q57 -101 57 -305v-356q0 -207 -57 -306q-80 -136 -282 -136zM427 162q99 0 131 78q22 53 22 182v361q0 128 -20 179q-33 80 -133 80q-99 0 -131 -78
q-22 -53 -22 -182v-361q0 -128 21 -178q31 -81 132 -81z" />
    <glyph glyph-name="p" unicode="p" horiz-adv-x="891" 
d="M119 -366v1568h187v-123q49 143 193 143q127 0 200 -65q61 -57 84 -163q17 -79 17 -214v-356q0 -208 -48 -306q-68 -136 -251 -136q-143 0 -195 143v-491h-187zM460 162q97 0 131 78q22 53 22 182v361q0 128 -20 179q-33 80 -133 80q-89 0 -126 -81q-26 -58 -28 -179
v-360q0 -119 25 -177q36 -83 129 -83z" />
    <glyph glyph-name="q" unicode="q" horiz-adv-x="887" 
d="M582 -366v488q-52 -141 -193 -141q-127 0 -198 66q-61 54 -84 162q-18 84 -18 214v356q0 211 48 307q67 135 251 135q141 0 194 -141v122h187v-1568h-187zM429 161q84 0 121 70q27 51 32 158v432q-6 105 -31 152q-36 68 -122 68q-97 0 -130 -78q-23 -53 -23 -182v-361
q0 -129 21 -179q32 -80 132 -80z" />
    <glyph glyph-name="r" unicode="r" horiz-adv-x="586" 
d="M120 0v1202h187v-133q26 74 69 110q51 43 128 43v-1l1 1q40 0 73 -17l1 -194q-6 2 -14 6q-21 10 -55 17q-18 3 -39 3h-1q-94 0 -132 -85q-29 -62 -31 -185v-767h-187z" />
    <glyph glyph-name="s" unicode="s" horiz-adv-x="780" 
d="M385 -18q-185 0 -266 109q-70 92 -70 282h187q0 -95 30 -146q38 -65 117 -65q72 0 107.5 40.5t35.5 110.5q0 78 -72 140q-31 25 -75 52q-113 65 -171 106q-89 62 -127 153q-20 49 -20 112q0 170 76 256q79 90 253 90q162 0 238 -80q85 -90 85 -290l-188 1q0 85 -27 132
q-33 57 -108 57q-67 0 -104 -44q-36 -40 -36 -101q0 -71 74 -132q32 -28 76 -52q128 -75 173 -107q91 -66 129 -157q20 -51 20 -114q0 -166 -77 -256q-83 -97 -260 -97z" />
    <glyph glyph-name="t" unicode="t" horiz-adv-x="640" 
d="M427 -19q-166 0 -226 107q-48 85 -48 292v649h-123v174h123v388h189v-388h220v-174h-220v-649q0 -132 17 -172q21 -50 93 -50q82 0 152 39l14 -157q-85 -59 -191 -59z" />
    <glyph glyph-name="u" unicode="u" horiz-adv-x="912" 
d="M414 -18q-185 0 -253 137q-48 97 -48 304v779h187v-782q0 -128 21 -178q31 -81 133 -81q96 0 130 94q22 61 22 198v749h187v-1202h-187v126q-26 -70 -68 -104q-51 -40 -124 -40z" />
    <glyph glyph-name="v" unicode="v" horiz-adv-x="773" 
d="M252 0l-244 1203h194l180 -1024h7l182 1024h193l-244 -1203h-268z" />
    <glyph glyph-name="w" unicode="w" horiz-adv-x="1274" 
d="M202 0l-183 1203h193l138 -1024h12l138 1024h280l138 -1024h12l138 1024h193l-183 -1203h-298l-140 1022h-1l-139 -1022h-298z" />
    <glyph glyph-name="x" unicode="x" horiz-adv-x="767" 
d="M5 0l263 625l-248 577h197l171 -414l176 414h184l-248 -577l263 -625h-196l-187 451l-190 -451h-185z" />
    <glyph glyph-name="y" unicode="y" horiz-adv-x="764" 
d="M265 -425l-83 130q62 33 103 94q45 69 66 177l4 24h-122l-224 1203h193l175 -1038h9l25 137q13 81 39 232t37 219q9 55 35.5 210t40.5 240h193q-14 -79 -41.5 -224.5t-34.5 -184.5q-11 -59 -36.5 -197.5t-39.5 -212.5l-74 -401q-62 -315 -265 -408z" />
    <glyph glyph-name="z" unicode="z" horiz-adv-x="733" 
d="M44 0v160l426 869h-397v173h604v-159l-424 -865h422v-178h-631z" />
    <glyph glyph-name="braceleft" unicode="{" horiz-adv-x="590" 
d="M466 -98q-139 0 -208 72q-82 82 -82 270v187q0 132 -26 179q-28 49 -116 59v181q87 10 115 60q25 46 27 179v187q-4 186 80 270q71 71 210 71h52v-169h-31q-83 0 -106 -49q-15 -30 -17 -138l-4 -261q-2 -111 -32.5 -168.5t-100.5 -71.5q71 -13 102 -71q29 -56 31 -169
l4 -291q2 -84 22 -116q24 -41 101 -41h31v-170h-52z" />
    <glyph glyph-name="bar" unicode="|" horiz-adv-x="732" 
d="M131 -82v1685h191v-1685h-191z" />
    <glyph glyph-name="braceright" unicode="}" horiz-adv-x="590" 
d="M71 -98v170h32q75 0 101 41q19 33 21 116l4 291q1 113 31.5 169.5t101.5 70.5q-70 14 -100.5 71.5t-32.5 168.5l-4 261q-2 108 -16 138q-25 49 -106 49h-32v169h53q138 0 209 -71q81 -83 81 -270v-187q0 -133 27 -179q27 -50 115 -60v-181q-88 -10 -115 -59
q-27 -46 -27 -179v-187q0 -187 -81 -270q-71 -72 -209 -72h-53z" />
    <glyph glyph-name="asciitilde" unicode="~" horiz-adv-x="833" 
d="M578 576q-66 0 -166 47q-4 2 -21 9.5t-22.5 10t-19.5 8t-21.5 7.5t-18.5 5.5t-20 4.5t-18 1q-87 0 -134 -63l-45 123q61 106 190 106q57 0 163 -46q104 -47 145 -47q87 0 132 63l45 -124q-60 -105 -189 -105z" />
    <glyph glyph-name="exclamdown" unicode="&#xa1;" horiz-adv-x="476" 
d="M190 1017q-62 0 -89.5 26.5t-27.5 84.5q0 55 27.5 81t89.5 26q59 0 86.5 -26t27.5 -81q0 -57 -27 -84t-87 -27zM80 -304l26 1132h162l28 -1132h-216z" />
    <glyph glyph-name="cent" unicode="&#xa2;" horiz-adv-x="846" 
d="M362 -168v155q-163 22 -227 153q-47 95 -47 283v302v55q0 36 1 55q2 164 56 254q67 111 217 129v159h169v-164q143 -29 198 -147q41 -88 41 -241v-18h-186v20q0 102 -21 145q-34 70 -134 70q-99 0 -131 -78q-22 -53 -22 -182v-272q0 -133 4 -196q7 -68 37 -106
q36 -46 112 -46q97 0 132 67q23 46 23 149v17h186v-16q0 -159 -41 -243q-57 -118 -198 -145v-159h-169z" />
    <glyph glyph-name="sterling" unicode="&#xa3;" horiz-adv-x="859" 
d="M612 -14q-40 0 -168 13q-118 12 -172 12q-29 0 -112 -9q-11 -1 -33 -3.5t-33 -4.5v182q79 33 120 127q37 84 37 190q0 32 -5 77h-151v171h115q-6 23 -32 115q-42 132 -57 230q-10 54 -10 114q0 161 75 249q85 99 265 99q183 0 259 -121q68 -110 63 -332l-187 -2
q0 5 -1.5 22.5t-2.5 28.5q-6 76 -18 120q-18 64 -58 89q-23 14 -55 14q-149 0 -149 -202q0 -81 34 -202l32 -109q20 -66 32 -113h261v-171h-228q4 -33 4 -74q0 -90 -30 -182q-31 -94 -75 -138q32 5 57 5q47 0 103 -8q54 -8 96 -8q88 0 143 35l60 -157q-67 -57 -179 -57z" />
    <glyph glyph-name="currency" unicode="&#xa4;" horiz-adv-x="781" 
d="M580 395l-76 76q-56 -27 -113 -27q-59 0 -113 26l-74 -74l-117 118l74 73q-26 54 -26 113q0 58 27 114l-76 76l118 118l77 -77q51 25 110 25q61 0 111 -26l78 78l118 -117l-78 -79q26 -57 26 -112q0 -59 -25 -110l77 -76zM391 584q49 0 83 34q34 36 34 82q0 47 -34 83
q-36 34 -83 34q-48 0 -82 -34q-35 -35 -35 -83q0 -47 35 -82q32 -34 82 -34z" />
    <glyph glyph-name="yen" unicode="&#xa5;" horiz-adv-x="854" 
d="M328 0v324h-213v114h213v135h-213v114h177l-270 833h208l196 -677l203 677h191l-267 -833h185v-114h-220v-135h220v-114h-220v-324h-190z" />
    <glyph glyph-name="brokenbar" unicode="&#xa6;" horiz-adv-x="732" 
d="M131 827v776h191v-776h-191zM131 -82v787h191v-787h-191z" />
    <glyph glyph-name="section" unicode="&#xa7;" horiz-adv-x="839" 
d="M413 -271q-161 0 -238 81q-85 90 -85 289l188 -1q0 -85 27 -132q33 -57 108 -57q66 0 105 44q35 41 35 100q0 90 -122 168q-42 28 -114 68q-140 78 -201 182q-35 59 -35 145q0 239 195 292q-86 56 -128 115q-55 77 -55 176q0 170 76 256q79 90 253 90q162 0 238 -80
q85 -90 85 -290l-188 1q0 85 -27 132q-33 57 -108 57q-67 0 -104 -44q-36 -42 -36 -101q0 -71 74 -132q32 -28 76 -52q128 -75 173 -107q91 -66 129 -157q20 -51 20 -114q0 -240 -196 -293q87 -57 129 -115q55 -76 55 -176q0 -169 -75 -254q-80 -91 -254 -91zM415 485
q72 0 107.5 40.5t35.5 110.5q0 77 -72 139q-27 13 -66 13q-72 0 -108 -40t-36 -110q0 -76 73 -141q28 -12 66 -12z" />
    <glyph glyph-name="dieresis" unicode="&#xa8;" horiz-adv-x="513" 
d="M114 1318q-92 0 -92 96q0 51 22 75t70 24q52 0 74.5 -23.5t22.5 -75.5q0 -49 -22.5 -72.5t-74.5 -23.5zM351 1318q-93 0 -93 96q0 51 22.5 75t70.5 24q52 0 74 -23.5t22 -75.5q0 -49 -22 -72.5t-74 -23.5z" />
    <glyph glyph-name="copyright" unicode="&#xa9;" horiz-adv-x="1433" 
d="M715 -210q-298 0 -455 147q-177 164 -177 520v447q0 351 177 515q158 145 455 145q296 0 454 -147q176 -165 176 -518v-446q0 -351 -176 -516q-158 -147 -454 -147zM715 -60q230 0 346 119q123 126 123 391v452q0 268 -125 395q-117 118 -346 118q-230 0 -345 -118
q-124 -126 -124 -390v-452q0 -268 123 -396q115 -119 348 -119zM714 90q-190 0 -264 131q-52 92 -52 286v386q2 169 64 256q75 106 251 106q190 0 264 -120q51 -84 51 -252v-16h-165v17q0 100 -20 142q-34 68 -130 68t-127 -76q-22 -52 -22 -179v-256q0 -125 4 -184
q7 -66 37 -103q36 -44 108 -44q94 0 127 66q23 45 23 145v15h165v-15q0 -171 -52 -255q-73 -118 -262 -118z" />
    <glyph glyph-name="ordfeminine" unicode="&#xaa;" horiz-adv-x="727" 
d="M319 760q-133 0 -188 78q-45 64 -45 215v153q0 174 40 244q50 90 193 90q95 0 137 -111v92h166v-742h-166v96q-40 -115 -137 -115zM353 914q52 0 76.5 30.5t24.5 100.5v167q0 92 -19 130q-25 46 -82 46q-61 0 -83 -45q-19 -38 -19 -130v-123q0 -92 20 -130q23 -46 82 -46
zM122 549v150h494v-150h-494z" />
    <glyph glyph-name="guillemotleft" unicode="&#xab;" horiz-adv-x="830" 
d="M226 189l-179 402l179 404h189l-186 -404l186 -402h-189zM591 189l-179 402l179 404h189l-186 -404l186 -402h-189z" />
    <glyph glyph-name="logicalnot" unicode="&#xac;" horiz-adv-x="833" 
d="M571 382v237h-476v168h643v-405h-167z" />
    <glyph glyph-name="uni00AD" unicode="&#xad;" horiz-adv-x="651" 
d="M88 -112v167h506v-167h-506z" />
    <glyph glyph-name="registered" unicode="&#xae;" horiz-adv-x="1433" 
d="M715 -210q-298 0 -455 147q-177 164 -177 520v447q0 351 177 515q156 145 453 145q298 0 455 -146q177 -166 177 -519v-446q0 -351 -176 -516q-158 -147 -454 -147zM713 -60q230 0 348 119q123 126 123 391v452q0 268 -125 395q-117 118 -346 118q-230 0 -345 -118
q-124 -126 -124 -390v-452q0 -270 122 -395q117 -120 347 -120zM410 116v1131h300q168 0 244.5 -79.5t76.5 -241.5v-45q0 -91 -41.5 -163.5t-112.5 -115.5q67 -40 93 -87q31 -55 35 -161l6 -238h-166l-8 228q-4 109 -55 160q-36 36 -103 46h-101v-434h-168zM578 711h129
q154 0 156 170v47q0 86 -40 124q-37 34 -113 34h-132v-375z" />
    <glyph glyph-name="macron" unicode="&#xaf;" horiz-adv-x="534" 
d="M44 1361v146h447v-146h-447z" />
    <glyph glyph-name="degree" unicode="&#xb0;" horiz-adv-x="497" 
d="M247 1091q-98 0 -156 66q-58 63 -58 157q0 95 58 159q59 67 156 67q99 0 159 -67q58 -64 58 -159q0 -94 -58 -157q-60 -66 -159 -66zM247 1201q47 0 74 32t27 81q0 50 -27 80.5t-74 30.5q-45 0 -71.5 -31t-26.5 -80t26.5 -81t71.5 -32z" />
    <glyph glyph-name="plusminus" unicode="&#xb1;" horiz-adv-x="833" 
d="M334 545v237h-239v168h239v237h166v-237h238v-168h-238v-237h-166zM95 266v168h643v-168h-643z" />
    <glyph glyph-name="uni00B2" unicode="&#xb2;" horiz-adv-x="667" 
d="M79 858v156q14 97 105 202q42 48 82 87q102 98 140 164q23 41 23 85q0 129 -93 129q-53 0 -73 -42q-17 -33 -17 -91v-35h-164v51q0 129 59 200q63 77 198 77q254 0 254 -288q0 -111 -77 -216q-37 -49 -74 -84q-98 -96 -137 -154q-27 -39 -33 -84h316v-157h-509z" />
    <glyph glyph-name="uni00B3" unicode="&#xb3;" horiz-adv-x="673" 
d="M338 838q-127 0 -190 63q-70 68 -70 215v34h164v-30q0 -51 16 -83q22 -45 79 -45q46 0 70 24q26 28 26 89v41q0 79 -30 112q-27 28 -75 28l-61 1v133l66 1q43 1 68 31.5t25 86.5v10q0 70 -17 101q-21 38 -72 38q-48 0 -67.5 -31t-19.5 -92v-41l-164 -1v27q0 145 56 214
q60 76 197 76q129 0 188.5 -69t59.5 -217q0 -94 -31 -144q-29 -46 -80 -54q58 -12 85 -55q35 -56 35 -182q0 -154 -70 -222q-62 -59 -188 -59z" />
    <glyph glyph-name="acute" unicode="&#xb4;" horiz-adv-x="549" 
d="M122 1283l129 263h182l-168 -263h-143z" />
    <glyph glyph-name="uni00B5" unicode="&#xb5;" horiz-adv-x="920" 
d="M132 -365v1567h187v-750q0 -132 25 -197q34 -94 128 -94q100 0 133 81q20 51 20 178v782h188v-779q0 -206 -47 -304q-68 -137 -249 -137q-149 0 -198 145v-492h-187z" />
    <glyph glyph-name="paragraph" unicode="&#xb6;" horiz-adv-x="1062" 
d="M460 -369v1015q-201 6 -298 117q-94 106 -94 310q0 224 90 333q95 115 302 115h171v-1890h-171zM783 -369v1890h170v-1890h-170z" />
    <glyph glyph-name="periodcentered" unicode="&#xb7;" horiz-adv-x="414" 
d="M203 480q-59 0 -86.5 26.5t-27.5 80.5q0 57 27.5 84t86.5 27q63 0 90.5 -26.5t27.5 -84.5q0 -55 -27.5 -81t-90.5 -26z" />
    <glyph glyph-name="cedilla" unicode="&#xb8;" horiz-adv-x="573" 
d="M263 -374q-117 0 -179 69l32 73q35 -23 59 -32q34 -13 83 -13q40 0 63.5 16.5t23.5 47.5q0 27 -30 40q-27 12 -66 12q-29 0 -48 -6v198h103l-1 -102l15 3q27 3 36 3q55 0 95 -40q38 -40 38 -101q0 -82 -64 -127q-59 -41 -160 -41z" />
    <glyph glyph-name="uni00B9" unicode="&#xb9;" horiz-adv-x="451" 
d="M183 858v758q-45 -60 -141 -93v154q109 62 167 144h140v-963h-166z" />
    <glyph glyph-name="ordmasculine" unicode="&#xba;" horiz-adv-x="680" 
d="M341 762q-143 0 -203 77q-54 67 -54 216v147q0 172 45 243q56 91 212 91q155 0 211 -90q44 -71 44 -244v-104q0 -173 -44 -245q-56 -91 -211 -91zM341 913q50 0 70.5 31t20.5 103v161q0 97 -13 131q-18 47 -78 47q-62 0 -80 -46q-12 -30 -12 -131v-118q0 -97 13 -131
q18 -47 79 -47zM93 549v150h494v-150h-494z" />
    <glyph glyph-name="guillemotright" unicode="&#xbb;" horiz-adv-x="806" 
d="M49 188l186 402l-186 404h189l179 -404l-179 -402h-189zM413 188l186 402l-186 404h189l179 -404l-179 -402h-189z" />
    <glyph glyph-name="onehalf" unicode="&#xbd;" horiz-adv-x="1484" 
d="M473 234l-164 32l494 1563l159 -32zM198 858v758q-45 -60 -141 -93v154q109 62 167 144h140v-963h-166zM875 301v156q14 97 105 202q42 48 82 87q102 98 140 164q23 41 23 85q0 129 -93 129q-53 0 -73 -42q-17 -33 -17 -91v-35h-164v51q0 129 59 200q63 77 198 77
q254 0 254 -288q0 -111 -77 -216q-37 -49 -74 -84q-98 -96 -137 -154q-27 -39 -33 -84h316v-157h-509z" />
    <glyph glyph-name="questiondown" unicode="&#xbf;" horiz-adv-x="866" 
d="M460 1007q-63 0 -91 26.5t-28 84.5q0 55 28 81t91 26q59 0 86 -26t27 -81q0 -57 -27 -84t-86 -27zM449 -330q-163 0 -245 89q-89 97 -89 298q0 134 67 264q31 61 62 105q82 125 110 197q18 47 20 107l1 88h163l1 -90q1 -132 -59 -256q-24 -51 -56 -102
q-74 -118 -101 -200q-18 -53 -18 -115q0 -102 32.5 -151t109.5 -49q128 0 137 138l7 121h183l2 -82q0 -169 -71 -258q-82 -104 -256 -104z" />
    <glyph glyph-name="Agrave" unicode="&#xc0;" horiz-adv-x="852" 
d="M353 1602l-164 263h172l130 -263h-138zM7 0l275 1521h266l275 -1521h-193l-49 307h-331l-49 -307h-194zM278 481h275l-138 855z" />
    <glyph glyph-name="Aacute" unicode="&#xc1;" horiz-adv-x="852" 
d="M348 1602l129 263h182l-168 -263h-143zM7 0l275 1521h266l275 -1521h-193l-49 307h-331l-49 -307h-194zM278 481h275l-138 855z" />
    <glyph glyph-name="Acircumflex" unicode="&#xc2;" horiz-adv-x="852" 
d="M194 1602l137 236h181l138 -236h-160l-68 133l-68 -133h-160zM7 0l275 1521h266l275 -1521h-193l-49 307h-331l-49 -307h-194zM278 481h275l-138 855z" />
    <glyph glyph-name="Atilde" unicode="&#xc3;" horiz-adv-x="852" 
d="M524 1641q-47 0 -109 34q-64 34 -91 34q-57 0 -91 -67l-94 39q27 79 70 123q46 48 114 48q44 0 112 -34q4 -2 15.5 -8t16 -8.5t14 -7t15.5 -6.5t14.5 -3.5t15.5 -1.5q51 0 85 67l95 -37q-25 -79 -67 -123q-47 -49 -115 -49zM7 0l275 1521h266l275 -1521h-193l-49 307
h-331l-49 -307h-194zM278 481h275l-138 855z" />
    <glyph glyph-name="Adieresis" unicode="&#xc4;" horiz-adv-x="852" 
d="M302 1637q-92 0 -92 96q0 51 22 75t70 24q52 0 74.5 -23.5t22.5 -75.5q0 -49 -22.5 -72.5t-74.5 -23.5zM539 1637q-93 0 -93 96q0 51 22.5 75t70.5 24q52 0 74 -23.5t22 -75.5q0 -49 -22 -72.5t-74 -23.5zM7 0l275 1521h266l275 -1521h-193l-49 307h-331l-49 -307h-194z
M278 481h275l-138 855z" />
    <glyph glyph-name="Aring" unicode="&#xc5;" horiz-adv-x="852" 
d="M419 1602q-184 0 -184 175q0 92 44.5 136.5t139.5 44.5q103 0 147 -44t44 -137q0 -88 -44.5 -131.5t-146.5 -43.5zM421 1718q64 0 64 61q0 31 -14.5 46t-49.5 15q-61 0 -61 -61t61 -61zM7 0l275 1521h266l275 -1521h-193l-49 307h-331l-49 -307h-194zM278 481h275
l-138 855z" />
    <glyph glyph-name="AE" unicode="&#xc6;" horiz-adv-x="1069" 
d="M-16 0l407 1520l637 1v-184l-327 -1v-467h258v-184h-258v-502h327v-183h-517v307h-260l-77 -307h-190zM295 481h216v859z" />
    <glyph glyph-name="Ccedilla" unicode="&#xc7;" horiz-adv-x="870" 
d="M431 -374q-117 0 -179 69l32 73q35 -23 59 -32q34 -13 83 -13q40 0 63.5 16.5t23.5 47.5q0 27 -30 40q-27 12 -66 12q-29 0 -48 -6v154q-163 22 -229 152q-52 100 -52 281v681q0 202 65 305q84 134 289 134q140 0 226 -63q72 -55 103 -157q25 -82 25 -199v-65h-192v64
q0 112 -27 164q-38 73 -135 73q-99 0 -135 -76q-27 -59 -27 -181v-679q0 -124 25 -177q36 -79 137 -79q95 0 133 70q29 54 29 166v65h192v-66q0 -113 -24 -193q-29 -98 -96 -154q-77 -64 -205 -70v-54l15 3q27 3 36 3q55 0 95 -40q38 -40 38 -101q0 -82 -64 -127
q-59 -41 -160 -41z" />
    <glyph glyph-name="Egrave" unicode="&#xc8;" horiz-adv-x="795" 
d="M359 1602l-164 263h172l130 -263h-138zM122 0v1520l613 1v-184l-422 -1v-467h353v-184h-353v-502h422v-183h-613z" />
    <glyph glyph-name="Eacute" unicode="&#xc9;" horiz-adv-x="795" 
d="M347 1602l129 263h182l-168 -263h-143zM122 0v1520l613 1v-184l-422 -1v-467h353v-184h-353v-502h422v-183h-613z" />
    <glyph glyph-name="Ecircumflex" unicode="&#xca;" horiz-adv-x="795" 
d="M191 1602l137 236h181l138 -236h-160l-68 133l-68 -133h-160zM122 0v1520l613 1v-184l-422 -1v-467h353v-184h-353v-502h422v-183h-613z" />
    <glyph glyph-name="Edieresis" unicode="&#xcb;" horiz-adv-x="795" 
d="M302 1637q-92 0 -92 96q0 51 22 75t70 24q52 0 74.5 -23.5t22.5 -75.5q0 -49 -22.5 -72.5t-74.5 -23.5zM539 1637q-93 0 -93 96q0 51 22.5 75t70.5 24q52 0 74 -23.5t22 -75.5q0 -49 -22 -72.5t-74 -23.5zM122 0v1520l613 1v-184l-422 -1v-467h353v-184h-353v-502h422
v-183h-613z" />
    <glyph glyph-name="Igrave" unicode="&#xcc;" horiz-adv-x="446" 
d="M145 1602l-164 263h172l130 -263h-138zM128 0v1521h191v-1521h-191z" />
    <glyph glyph-name="Iacute" unicode="&#xcd;" horiz-adv-x="446" 
d="M140 1602l129 263h182l-168 -263h-143zM128 0v1521h191v-1521h-191z" />
    <glyph glyph-name="Icircumflex" unicode="&#xce;" horiz-adv-x="446" 
d="M-12 1602l137 236h181l138 -236h-160l-68 133l-68 -133h-160zM128 0v1521h191v-1521h-191z" />
    <glyph glyph-name="Idieresis" unicode="&#xcf;" horiz-adv-x="446" 
d="M95 1637q-92 0 -92 96q0 51 22 75t70 24q52 0 74.5 -23.5t22.5 -75.5q0 -49 -22.5 -72.5t-74.5 -23.5zM332 1637q-93 0 -93 96q0 51 22.5 75t70.5 24q52 0 74 -23.5t22 -75.5q0 -49 -22 -72.5t-74 -23.5zM128 0v1521h191v-1521h-191z" />
    <glyph glyph-name="Eth" unicode="&#xd0;" horiz-adv-x="919" 
d="M114 0v619h-96v168h96v733h344q201 0 285 -130q66 -104 66 -303v-654q0 -201 -66 -303q-85 -130 -287 -130h-342zM304 183h152q89 0 126.5 60.5t37.5 190.5v652q0 127 -34 185q-36 61 -121 65h-161v-549h139v-168h-139v-436z" />
    <glyph glyph-name="Ntilde" unicode="&#xd1;" horiz-adv-x="1007" 
d="M614 1641q-47 0 -109 34q-64 34 -91 34q-57 0 -91 -67l-94 39q27 79 70 123q46 48 114 48q44 0 112 -34q4 -2 15.5 -8t16 -8.5t14 -7t15.5 -6.5t14.5 -3.5t15.5 -1.5q51 0 85 67l95 -37q-25 -79 -67 -123q-47 -49 -115 -49zM127 0v1521h254l314 -1132l-6 1132h191
l4 -1521h-241l-333 1147l8 -1147h-191z" />
    <glyph glyph-name="Ograve" unicode="&#xd2;" horiz-adv-x="883" 
d="M378 1602l-164 263h172l130 -263h-138zM441 -18q-205 0 -290 136q-63 101 -63 302v681q0 204 65 305q84 134 288 134v-1l1 1q206 0 290 -135q64 -103 64 -304v-680q0 -202 -65 -305q-84 -134 -289 -134l-1 1v-1zM441 165h1q99 0 136 77q27 55 27 180v678q0 123 -25 178
q-37 78 -138 78q-4 0 -5 1q-96 -1 -131 -77q-27 -59 -27 -180v-679q0 -124 25 -177q36 -79 137 -79z" />
    <glyph glyph-name="Oacute" unicode="&#xd3;" horiz-adv-x="883" 
d="M362 1602l129 263h182l-168 -263h-143zM441 -18q-205 0 -290 136q-63 101 -63 302v681q0 204 65 305q84 134 288 134v-1l1 1q206 0 290 -135q64 -103 64 -304v-680q0 -202 -65 -305q-84 -134 -289 -134l-1 1v-1zM441 165h1q99 0 136 77q27 55 27 180v678q0 123 -25 178
q-37 78 -138 78q-4 0 -5 1q-96 -1 -131 -77q-27 -59 -27 -180v-679q0 -124 25 -177q36 -79 137 -79z" />
    <glyph glyph-name="Ocircumflex" unicode="&#xd4;" horiz-adv-x="883" 
d="M213 1602l137 236h181l138 -236h-160l-68 133l-68 -133h-160zM441 -18q-205 0 -290 136q-63 101 -63 302v681q0 204 65 305q84 134 288 134v-1l1 1q206 0 290 -135q64 -103 64 -304v-680q0 -202 -65 -305q-84 -134 -289 -134l-1 1v-1zM441 165h1q99 0 136 77
q27 55 27 180v678q0 123 -25 178q-37 78 -138 78q-4 0 -5 1q-96 -1 -131 -77q-27 -59 -27 -180v-679q0 -124 25 -177q36 -79 137 -79z" />
    <glyph glyph-name="Otilde" unicode="&#xd5;" horiz-adv-x="883" 
d="M543 1641q-47 0 -109 34q-64 34 -91 34q-57 0 -91 -67l-94 39q27 79 70 123q46 48 114 48q44 0 112 -34q4 -2 15.5 -8t16 -8.5t14 -7t15.5 -6.5t14.5 -3.5t15.5 -1.5q51 0 85 67l95 -37q-25 -79 -67 -123q-47 -49 -115 -49zM441 -18q-205 0 -290 136q-63 101 -63 302v681
q0 204 65 305q84 134 288 134v-1l1 1q206 0 290 -135q64 -103 64 -304v-680q0 -202 -65 -305q-84 -134 -289 -134l-1 1v-1zM441 165h1q99 0 136 77q27 55 27 180v678q0 123 -25 178q-37 78 -138 78q-4 0 -5 1q-96 -1 -131 -77q-27 -59 -27 -180v-679q0 -124 25 -177
q36 -79 137 -79z" />
    <glyph glyph-name="Odieresis" unicode="&#xd6;" horiz-adv-x="883" 
d="M321 1637q-92 0 -92 96q0 51 22 75t70 24q52 0 74.5 -23.5t22.5 -75.5q0 -49 -22.5 -72.5t-74.5 -23.5zM558 1637q-93 0 -93 96q0 51 22.5 75t70.5 24q52 0 74 -23.5t22 -75.5q0 -49 -22 -72.5t-74 -23.5zM441 -18q-205 0 -290 136q-63 101 -63 302v681q0 204 65 305
q84 134 288 134v-1l1 1q206 0 290 -135q64 -103 64 -304v-680q0 -202 -65 -305q-84 -134 -289 -134l-1 1v-1zM441 165h1q99 0 136 77q27 55 27 180v678q0 123 -25 178q-37 78 -138 78q-4 0 -5 1q-96 -1 -131 -77q-27 -59 -27 -180v-679q0 -124 25 -177q36 -79 137 -79z" />
    <glyph glyph-name="multiply" unicode="&#xd7;" horiz-adv-x="834" 
d="M239 405l-118 118l178 178l-178 179l119 119l178 -179l177 177l118 -117l-177 -178l178 -178l-118 -118l-179 178z" />
    <glyph glyph-name="Oslash" unicode="&#xd8;" horiz-adv-x="883" 
d="M298 -115l-176 35l46 173q-45 57 -64 148q-16 75 -16 179v681q0 204 65 305q84 134 288 134v-1l1 1q59 0 113 -13l33 118l171 -46l-45 -169q46 -58 66 -149q16 -75 16 -180v-680q0 -202 -65 -305q-84 -134 -289 -134l-1 1v-1q-60 0 -114 13zM441 165h1q99 0 136 77
q27 55 27 180v678q0 123 -25 178q-37 78 -138 78q-4 0 -5 1q-96 -1 -131 -77q-27 -59 -27 -180v-679q0 -124 25 -177q36 -79 137 -79z" />
    <glyph glyph-name="Ugrave" unicode="&#xd9;" horiz-adv-x="918" 
d="M392 1602l-164 263h172l130 -263h-138zM460 -18q-204 0 -285 109q-67 89 -67 282v1147h190v-1142q0 -112 24 -154q33 -59 138 -59q106 0 139 59q24 42 24 154v1142h190v-1147q0 -193 -66 -282q-82 -109 -287 -109z" />
    <glyph glyph-name="Uacute" unicode="&#xda;" horiz-adv-x="918" 
d="M385 1602l129 263h182l-168 -263h-143zM460 -18q-204 0 -285 109q-67 89 -67 282v1147h190v-1142q0 -112 24 -154q33 -59 138 -59q106 0 139 59q24 42 24 154v1142h190v-1147q0 -193 -66 -282q-82 -109 -287 -109z" />
    <glyph glyph-name="Ucircumflex" unicode="&#xdb;" horiz-adv-x="918" 
d="M232 1602l137 236h181l138 -236h-160l-68 133l-68 -133h-160zM460 -18q-204 0 -285 109q-67 89 -67 282v1147h190v-1142q0 -112 24 -154q33 -59 138 -59q106 0 139 59q24 42 24 154v1142h190v-1147q0 -193 -66 -282q-82 -109 -287 -109z" />
    <glyph glyph-name="Udieresis" unicode="&#xdc;" horiz-adv-x="918" 
d="M340 1637q-92 0 -92 96q0 51 22 75t70 24q52 0 74.5 -23.5t22.5 -75.5q0 -49 -22.5 -72.5t-74.5 -23.5zM577 1637q-93 0 -93 96q0 51 22.5 75t70.5 24q52 0 74 -23.5t22 -75.5q0 -49 -22 -72.5t-74 -23.5zM460 -18q-204 0 -285 109q-67 89 -67 282v1147h190v-1142
q0 -112 24 -154q33 -59 138 -59q106 0 139 59q24 42 24 154v1142h190v-1147q0 -193 -66 -282q-82 -109 -287 -109z" />
    <glyph glyph-name="Yacute" unicode="&#xdd;" horiz-adv-x="803" 
d="M340 1602l129 263h182l-168 -263h-143zM309 0v576l-306 944h209l195 -677l203 677h191l-302 -944v-576h-190z" />
    <glyph glyph-name="Thorn" unicode="&#xde;" horiz-adv-x="916" 
d="M121 0v1521h190v-309h141q171 0 257 -80q96 -90 96 -285v-192q0 -209 -95 -295q-84 -77 -267 -77h-132v-283h-190zM311 466h130q93 0 134 42q38 41 38 147v192q0 91 -37.5 136t-122.5 45h-142v-562z" />
    <glyph glyph-name="germandbls" unicode="&#xdf;" horiz-adv-x="867" 
d="M437 -4v178q98 0 136 79q28 58 28 183v98q0 120 -26 170q-37 70 -138 70h-39v178h49q83 1 118 61q24 41 24 113v48q0 73 -24 120q-37 68 -128 68q-98 0 -134 -79q-27 -59 -27 -183v-1099l-190 -1v1096q0 201 64 307q83 137 287 137q136 0 218 -61q69 -51 98 -144
q23 -74 23 -165v-42q0 -91 -32 -155q-36 -72 -112 -111q158 -81 158 -330v-92q0 -129 -25 -216q-31 -108 -103 -163q-84 -65 -225 -65z" />
    <glyph glyph-name="agrave" unicode="&#xe0;" horiz-adv-x="890" 
d="M371 1283l-164 263h172l130 -263h-138zM390 -19q-171 0 -244 111q-60 91 -60 265q0 167 51 240q68 95 251 95q111 0 199 -32v122q0 129 -22 182q-33 78 -131 78q-90 0 -124 -70q-24 -49 -24 -145v-20h-187v18q0 176 60 271q79 126 274 126q191 0 273 -113q68 -93 68 -274
v-835h-186v131q-26 -73 -70 -108q-52 -42 -128 -42zM430 161q88 0 127 78q30 60 30 167v91q-57 38 -160 38q-97 0 -130 -58q-23 -40 -23 -123q0 -92 30 -136q37 -57 126 -57z" />
    <glyph glyph-name="aacute" unicode="&#xe1;" horiz-adv-x="890" 
d="M361 1283l129 263h182l-168 -263h-143zM390 -19q-171 0 -244 111q-60 91 -60 265q0 167 51 240q68 95 251 95q111 0 199 -32v122q0 129 -22 182q-33 78 -131 78q-90 0 -124 -70q-24 -49 -24 -145v-20h-187v18q0 176 60 271q79 126 274 126q191 0 273 -113q68 -93 68 -274
v-835h-186v131q-26 -73 -70 -108q-52 -42 -128 -42zM430 161q88 0 127 78q30 60 30 167v91q-57 38 -160 38q-97 0 -130 -58q-23 -40 -23 -123q0 -92 30 -136q37 -57 126 -57z" />
    <glyph glyph-name="acircumflex" unicode="&#xe2;" horiz-adv-x="890" 
d="M219 1283l137 236h181l138 -236h-160l-68 133l-68 -133h-160zM390 -19q-171 0 -244 111q-60 91 -60 265q0 167 51 240q68 95 251 95q111 0 199 -32v122q0 129 -22 182q-33 78 -131 78q-90 0 -124 -70q-24 -49 -24 -145v-20h-187v18q0 176 60 271q79 126 274 126
q191 0 273 -113q68 -93 68 -274v-835h-186v131q-26 -73 -70 -108q-52 -42 -128 -42zM430 161q88 0 127 78q30 60 30 167v91q-57 38 -160 38q-97 0 -130 -58q-23 -40 -23 -123q0 -92 30 -136q37 -57 126 -57z" />
    <glyph glyph-name="atilde" unicode="&#xe3;" horiz-adv-x="890" 
d="M548 1322q-47 0 -109 34q-64 34 -91 34q-57 0 -91 -67l-94 39q27 79 70 123q46 48 114 48q44 0 112 -34q4 -2 15.5 -8t16 -8.5t14 -7t15.5 -6.5t14.5 -3.5t15.5 -1.5q51 0 85 67l95 -37q-25 -79 -67 -123q-47 -49 -115 -49zM390 -19q-171 0 -244 111q-60 91 -60 265
q0 167 51 240q68 95 251 95q111 0 199 -32v122q0 129 -22 182q-33 78 -131 78q-90 0 -124 -70q-24 -49 -24 -145v-20h-187v18q0 176 60 271q79 126 274 126q191 0 273 -113q68 -93 68 -274v-835h-186v131q-26 -73 -70 -108q-52 -42 -128 -42zM430 161q88 0 127 78
q30 60 30 167v91q-57 38 -160 38q-97 0 -130 -58q-23 -40 -23 -123q0 -92 30 -136q37 -57 126 -57z" />
    <glyph glyph-name="adieresis" unicode="&#xe4;" horiz-adv-x="890" 
d="M326 1318q-92 0 -92 96q0 51 22 75t70 24q52 0 74.5 -23.5t22.5 -75.5q0 -49 -22.5 -72.5t-74.5 -23.5zM563 1318q-93 0 -93 96q0 51 22.5 75t70.5 24q52 0 74 -23.5t22 -75.5q0 -49 -22 -72.5t-74 -23.5zM390 -19q-171 0 -244 111q-60 91 -60 265q0 167 51 240
q68 95 251 95q111 0 199 -32v122q0 129 -22 182q-33 78 -131 78q-90 0 -124 -70q-24 -49 -24 -145v-20h-187v18q0 176 60 271q79 126 274 126q191 0 273 -113q68 -93 68 -274v-835h-186v131q-26 -73 -70 -108q-52 -42 -128 -42zM430 161q88 0 127 78q30 60 30 167v91
q-57 38 -160 38q-97 0 -130 -58q-23 -40 -23 -123q0 -92 30 -136q37 -57 126 -57z" />
    <glyph glyph-name="aring" unicode="&#xe5;" horiz-adv-x="890" 
d="M443 1283q-184 0 -184 175q0 92 44.5 136.5t139.5 44.5q103 0 147 -44.5t44 -136.5q0 -88 -44.5 -131.5t-146.5 -43.5zM445 1399q64 0 64 61q0 31 -14.5 46t-49.5 15q-61 0 -61 -61t61 -61zM390 -19q-171 0 -244 111q-60 91 -60 265q0 167 51 240q68 95 251 95
q111 0 199 -32v122q0 129 -22 182q-33 78 -131 78q-90 0 -124 -70q-24 -49 -24 -145v-20h-187v18q0 176 60 271q79 126 274 126q191 0 273 -113q68 -93 68 -274v-835h-186v131q-26 -73 -70 -108q-52 -42 -128 -42zM430 161q88 0 127 78q30 60 30 167v91q-57 38 -160 38
q-97 0 -130 -58q-23 -40 -23 -123q0 -92 30 -136q37 -57 126 -57z" />
    <glyph glyph-name="ae" unicode="&#xe6;" horiz-adv-x="1393" 
d="M421 -19q-182 0 -260 111q-65 90 -65 265q0 167 51 240q68 95 251 95q111 0 199 -32v122q0 129 -22 182q-33 78 -131 78q-90 0 -124 -70q-24 -49 -24 -145v-20h-187v18q0 176 60 271q79 126 274 126q174 0 250 -97q76 97 246 97q204 0 284 -127q57 -93 57 -280v-225
l-496 -88v-80q0 -129 21 -179q33 -81 134 -81q98 0 132 67q23 46 23 154v23h186v-22q0 -188 -57 -279q-79 -123 -282 -123q-185 0 -259 113q-44 -52 -111.5 -83t-149.5 -31zM784 665l310 59v93q0 109 -21 154q-33 71 -134 71q-99 0 -131 -78q-24 -55 -24 -183v-116zM444 161
q88 0 127 78q30 60 30 167v91q-57 38 -160 38q-97 0 -130 -58q-23 -40 -23 -123q0 -92 30 -136q37 -57 126 -57z" />
    <glyph glyph-name="ccedilla" unicode="&#xe7;" horiz-adv-x="846" 
d="M427 -374q-117 0 -179 69l32 73q35 -23 59 -32q34 -13 83 -13q40 0 63.5 16.5t23.5 47.5q0 27 -30 40q-27 12 -66 12q-29 0 -48 -6v153q-165 20 -229 152q-48 96 -48 285v302v55q0 36 1 55q2 182 69 274q82 113 271 113q203 0 284 -126q57 -92 57 -271v-18h-186v20
q0 102 -21 145q-34 70 -134 70q-99 0 -131 -78q-22 -53 -22 -182v-272q0 -133 4 -196q7 -68 37 -106q36 -46 112 -46q97 0 132 67q23 46 23 149v17h186v-16q0 -175 -52 -263q-72 -122 -251 -133v-54l15 3q27 3 36 3q55 0 95 -40q38 -40 38 -101q0 -82 -64 -127
q-59 -41 -160 -41z" />
    <glyph glyph-name="egrave" unicode="&#xe8;" horiz-adv-x="853" 
d="M366 1283l-164 263h172l130 -263h-138zM430 -18q-206 0 -285 137q-58 100 -58 304v356q0 132 22 216q28 108 98 163q82 64 221 64q204 0 284 -127q57 -93 57 -280v-225l-496 -88v-80q0 -129 21 -179q33 -81 134 -81q98 0 132 67q23 46 23 154v23h186v-22q0 -188 -57 -279
q-79 -123 -282 -123zM273 665l310 59v93q0 109 -21 154q-33 71 -134 71q-98 0 -131 -78q-24 -55 -24 -183v-116z" />
    <glyph glyph-name="eacute" unicode="&#xe9;" horiz-adv-x="853" 
d="M349 1283l129 263h182l-168 -263h-143zM430 -18q-206 0 -285 137q-58 100 -58 304v356q0 132 22 216q28 108 98 163q82 64 221 64q204 0 284 -127q57 -93 57 -280v-225l-496 -88v-80q0 -129 21 -179q33 -81 134 -81q98 0 132 67q23 46 23 154v23h186v-22q0 -188 -57 -279
q-79 -123 -282 -123zM273 665l310 59v93q0 109 -21 154q-33 71 -134 71q-98 0 -131 -78q-24 -55 -24 -183v-116z" />
    <glyph glyph-name="ecircumflex" unicode="&#xea;" horiz-adv-x="853" 
d="M200 1283l137 236h181l138 -236h-160l-68 133l-68 -133h-160zM430 -18q-206 0 -285 137q-58 100 -58 304v356q0 132 22 216q28 108 98 163q82 64 221 64q204 0 284 -127q57 -93 57 -280v-225l-496 -88v-80q0 -129 21 -179q33 -81 134 -81q98 0 132 67q23 46 23 154v23
h186v-22q0 -188 -57 -279q-79 -123 -282 -123zM273 665l310 59v93q0 109 -21 154q-33 71 -134 71q-98 0 -131 -78q-24 -55 -24 -183v-116z" />
    <glyph glyph-name="edieresis" unicode="&#xeb;" horiz-adv-x="853" 
d="M307 1318q-92 0 -92 96q0 51 22 75t70 24q52 0 74.5 -23.5t22.5 -75.5q0 -49 -22.5 -72.5t-74.5 -23.5zM544 1318q-93 0 -93 96q0 51 22.5 75t70.5 24q52 0 74 -23.5t22 -75.5q0 -49 -22 -72.5t-74 -23.5zM430 -18q-206 0 -285 137q-58 100 -58 304v356q0 132 22 216
q28 108 98 163q82 64 221 64q204 0 284 -127q57 -93 57 -280v-225l-496 -88v-80q0 -129 21 -179q33 -81 134 -81q98 0 132 67q23 46 23 154v23h186v-22q0 -188 -57 -279q-79 -123 -282 -123zM273 665l310 59v93q0 109 -21 154q-33 71 -134 71q-98 0 -131 -78
q-24 -55 -24 -183v-116z" />
    <glyph glyph-name="igrave" unicode="&#xec;" horiz-adv-x="425" 
d="M144 1283l-164 263h172l130 -263h-138zM120 0v1202h187v-1202h-187z" />
    <glyph glyph-name="iacute" unicode="&#xed;" horiz-adv-x="425" 
d="M140 1283l129 263h182l-168 -263h-143zM120 0v1202h187v-1202h-187z" />
    <glyph glyph-name="icircumflex" unicode="&#xee;" horiz-adv-x="425" 
d="M-14 1283l137 236h181l138 -236h-160l-68 133l-68 -133h-160zM120 0v1202h187v-1202h-187z" />
    <glyph glyph-name="idieresis" unicode="&#xef;" horiz-adv-x="425" 
d="M93 1318q-92 0 -92 96q0 51 22 75t70 24q52 0 74.5 -23.5t22.5 -75.5q0 -49 -22.5 -72.5t-74.5 -23.5zM330 1318q-93 0 -93 96q0 51 22.5 75t70.5 24q52 0 74 -23.5t22 -75.5q0 -49 -22 -72.5t-74 -23.5zM120 0v1202h187v-1202h-187z" />
    <glyph glyph-name="eth" unicode="&#xf0;" horiz-adv-x="894" 
d="M449 -18q-207 0 -285 137q-58 100 -58 305v322q0 212 46 305q66 133 248 133q148 0 200 -142q-22 182 -107 283l-77 -83l-77 63l78 84q-37 22 -78 31q-9 3 -29 5q-3 0 -9.5 0.5t-8.5 1.5l81 152q29 -3 63 -12q62 -19 103 -46l68 74l77 -64l-68 -73q77 -80 120 -204
q52 -150 52 -363v-481q0 -202 -60 -299q-79 -129 -279 -129zM447 162q99 0 131 79q22 55 22 202v275q0 135 -20 194q-34 96 -133 96t-131 -78q-22 -53 -22 -182v-327q0 -128 21 -178q31 -81 132 -81z" />
    <glyph glyph-name="ntilde" unicode="&#xf1;" horiz-adv-x="908" 
d="M569 1322q-47 0 -109 34q-64 34 -91 34q-57 0 -91 -67l-94 39q27 79 70 123q46 48 114 48q44 0 112 -34q4 -2 15.5 -8t16 -8.5t14 -7t15.5 -6.5t14.5 -3.5t15.5 -1.5q51 0 85 67l95 -37q-25 -79 -67 -123q-47 -49 -115 -49zM120 0v1202h187v-133q28 67 84 107
q62 44 138 44q121 0 185 -64q53 -54 73 -164q13 -70 13 -213v-779h-187v782q0 133 -18 179q-32 80 -131 80q-93 0 -130 -95q-27 -69 -27 -199v-747h-187z" />
    <glyph glyph-name="ograve" unicode="&#xf2;" 
d="M355 1283l-164 263h172l130 -263h-138zM429 -18q-206 0 -285 137q-58 100 -58 304v356q0 132 22 216q28 108 98 163q82 64 221 64q205 0 284 -137q57 -101 57 -305v-356q0 -207 -57 -306q-80 -136 -282 -136zM427 162q99 0 131 78q22 53 22 182v361q0 128 -20 179
q-33 80 -133 80q-99 0 -131 -78q-22 -53 -22 -182v-361q0 -128 21 -178q31 -81 132 -81z" />
    <glyph glyph-name="oacute" unicode="&#xf3;" 
d="M348 1283l129 263h182l-168 -263h-143zM429 -18q-206 0 -285 137q-58 100 -58 304v356q0 132 22 216q28 108 98 163q82 64 221 64q205 0 284 -137q57 -101 57 -305v-356q0 -207 -57 -306q-80 -136 -282 -136zM427 162q99 0 131 78q22 53 22 182v361q0 128 -20 179
q-33 80 -133 80q-99 0 -131 -78q-22 -53 -22 -182v-361q0 -128 21 -178q31 -81 132 -81z" />
    <glyph glyph-name="ocircumflex" unicode="&#xf4;" 
d="M191 1283l137 236h181l138 -236h-160l-68 133l-68 -133h-160zM429 -18q-206 0 -285 137q-58 100 -58 304v356q0 132 22 216q28 108 98 163q82 64 221 64q205 0 284 -137q57 -101 57 -305v-356q0 -207 -57 -306q-80 -136 -282 -136zM427 162q99 0 131 78q22 53 22 182v361
q0 128 -20 179q-33 80 -133 80q-99 0 -131 -78q-22 -53 -22 -182v-361q0 -128 21 -178q31 -81 132 -81z" />
    <glyph glyph-name="otilde" unicode="&#xf5;" 
d="M520 1322q-47 0 -109 34q-64 34 -91 34q-57 0 -91 -67l-94 39q27 79 70 123q46 48 114 48q44 0 112 -34q4 -2 15.5 -8t16 -8.5t14 -7t15.5 -6.5t14.5 -3.5t15.5 -1.5q51 0 85 67l95 -37q-25 -79 -67 -123q-47 -49 -115 -49zM429 -18q-206 0 -285 137q-58 100 -58 304v356
q0 132 22 216q28 108 98 163q82 64 221 64q205 0 284 -137q57 -101 57 -305v-356q0 -207 -57 -306q-80 -136 -282 -136zM427 162q99 0 131 78q22 53 22 182v361q0 128 -20 179q-33 80 -133 80q-99 0 -131 -78q-22 -53 -22 -182v-361q0 -128 21 -178q31 -81 132 -81z" />
    <glyph glyph-name="odieresis" unicode="&#xf6;" 
d="M294 1318q-92 0 -92 96q0 51 22 75t70 24q52 0 74.5 -23.5t22.5 -75.5q0 -49 -22.5 -72.5t-74.5 -23.5zM531 1318q-93 0 -93 96q0 51 22.5 75t70.5 24q52 0 74 -23.5t22 -75.5q0 -49 -22 -72.5t-74 -23.5zM429 -18q-206 0 -285 137q-58 100 -58 304v356q0 132 22 216
q28 108 98 163q82 64 221 64q205 0 284 -137q57 -101 57 -305v-356q0 -207 -57 -306q-80 -136 -282 -136zM427 162q99 0 131 78q22 53 22 182v361q0 128 -20 179q-33 80 -133 80q-99 0 -131 -78q-22 -53 -22 -182v-361q0 -128 21 -178q31 -81 132 -81z" />
    <glyph glyph-name="divide" unicode="&#xf7;" horiz-adv-x="833" 
d="M417 889q-59 0 -86.5 26.5t-27.5 80.5q0 57 27.5 84t86.5 27q63 0 90.5 -26.5t27.5 -84.5q0 -55 -27.5 -81t-90.5 -26zM95 619v168h643v-168h-643zM417 299q-59 0 -86.5 26.5t-27.5 80.5q0 57 27.5 84t86.5 27q63 0 90.5 -26.5t27.5 -84.5q0 -55 -27.5 -81t-90.5 -26z
" />
    <glyph glyph-name="oslash" unicode="&#xf8;" 
d="M172 -84l-141 4l99 225q-44 95 -44 278v356q0 132 22 216q28 108 98 163q82 64 221 64q96 0 164 -30l59 132l139 -4l-93 -212q44 -65 59 -150q13 -73 13 -178v-356q0 -207 -57 -306q-80 -136 -282 -136q-125 0 -206 51zM274 471l241 548q-32 23 -88 23q-99 0 -131 -78
q-22 -53 -22 -182v-311zM427 162q99 0 131 78q22 53 22 182v361v30q0 20 -1 30l-274 -623q37 -58 122 -58z" />
    <glyph glyph-name="ugrave" unicode="&#xf9;" horiz-adv-x="912" 
d="M385 1283l-164 263h172l130 -263h-138zM414 -18q-185 0 -253 137q-48 97 -48 304v779h187v-782q0 -128 21 -178q31 -81 133 -81q96 0 130 94q22 61 22 198v749h187v-1202h-187v126q-26 -70 -68 -104q-51 -40 -124 -40z" />
    <glyph glyph-name="uacute" unicode="&#xfa;" horiz-adv-x="912" 
d="M375 1283l129 263h182l-168 -263h-143zM414 -18q-185 0 -253 137q-48 97 -48 304v779h187v-782q0 -128 21 -178q31 -81 133 -81q96 0 130 94q22 61 22 198v749h187v-1202h-187v126q-26 -70 -68 -104q-51 -40 -124 -40z" />
    <glyph glyph-name="ucircumflex" unicode="&#xfb;" horiz-adv-x="912" 
d="M221 1283l137 236h181l138 -236h-160l-68 133l-68 -133h-160zM414 -18q-185 0 -253 137q-48 97 -48 304v779h187v-782q0 -128 21 -178q31 -81 133 -81q96 0 130 94q22 61 22 198v749h187v-1202h-187v126q-26 -70 -68 -104q-51 -40 -124 -40z" />
    <glyph glyph-name="udieresis" unicode="&#xfc;" horiz-adv-x="912" 
d="M329 1318q-92 0 -92 96q0 51 22 75t70 24q52 0 74.5 -23.5t22.5 -75.5q0 -49 -22.5 -72.5t-74.5 -23.5zM566 1318q-93 0 -93 96q0 51 22.5 75t70.5 24q52 0 74 -23.5t22 -75.5q0 -49 -22 -72.5t-74 -23.5zM414 -18q-185 0 -253 137q-48 97 -48 304v779h187v-782
q0 -128 21 -178q31 -81 133 -81q96 0 130 94q22 61 22 198v749h187v-1202h-187v126q-26 -70 -68 -104q-51 -40 -124 -40z" />
    <glyph glyph-name="yacute" unicode="&#xfd;" horiz-adv-x="764" 
d="M307 1283l129 263h182l-168 -263h-143zM265 -425l-83 130q62 33 103 94q45 69 66 177l4 24h-122l-224 1203h193l175 -1038h9l25 137q13 81 39 232t37 219q9 55 35.5 210t40.5 240h193q-14 -79 -41.5 -224.5t-34.5 -184.5q-11 -59 -36.5 -197.5t-39.5 -212.5l-74 -401
q-62 -315 -265 -408z" />
    <glyph glyph-name="thorn" unicode="&#xfe;" horiz-adv-x="923" 
d="M122 -366v1887h187v-442q49 143 193 143q185 0 253 -137q48 -100 48 -305v-356q0 -208 -48 -306q-68 -136 -251 -136q-143 0 -195 143v-491h-187zM462 162q98 0 131 78q22 53 22 182v361q0 128 -20 179q-33 80 -133 80q-91 0 -126 -81q-25 -59 -27 -179v-370
q2 -114 27 -170q33 -80 126 -80z" />
    <glyph glyph-name="ydieresis" unicode="&#xff;" horiz-adv-x="764" 
d="M276 1318q-92 0 -92 96q0 51 22 75t70 24q52 0 74.5 -23.5t22.5 -75.5q0 -49 -22.5 -72.5t-74.5 -23.5zM513 1318q-93 0 -93 96q0 51 22.5 75t70.5 24q52 0 74 -23.5t22 -75.5q0 -49 -22 -72.5t-74 -23.5zM265 -425l-83 130q62 33 103 94q45 69 66 177l4 24h-122
l-224 1203h193l175 -1038h9l25 137q13 81 39 232t37 219q9 55 35.5 210t40.5 240h193q-14 -79 -41.5 -224.5t-34.5 -184.5q-11 -59 -36.5 -197.5t-39.5 -212.5l-74 -401q-62 -315 -265 -408z" />
    <glyph glyph-name="Amacron" unicode="&#x100;" horiz-adv-x="852" 
d="M199 1680v146h447v-146h-447zM7 0l275 1521h266l275 -1521h-193l-49 307h-331l-49 -307h-194zM278 481h275l-138 855z" />
    <glyph glyph-name="amacron" unicode="&#x101;" horiz-adv-x="890" 
d="M223 1361v146h447v-146h-447zM390 -19q-171 0 -244 111q-60 91 -60 265q0 167 51 240q68 95 251 95q111 0 199 -32v122q0 129 -22 182q-33 78 -131 78q-90 0 -124 -70q-24 -49 -24 -145v-20h-187v18q0 176 60 271q79 126 274 126q191 0 273 -113q68 -93 68 -274v-835
h-186v131q-26 -73 -70 -108q-52 -42 -128 -42zM430 161q88 0 127 78q30 60 30 167v91q-57 38 -160 38q-97 0 -130 -58q-23 -40 -23 -123q0 -92 30 -136q37 -57 126 -57z" />
    <glyph glyph-name="Abreve" unicode="&#x102;" horiz-adv-x="852" 
d="M422 1602q-133 0 -199 71q-60 65 -62 174h113q7 -67 35 -97q34 -37 113 -37q76 0 111 35q30 30 36 99h114q-5 -113 -64 -175q-67 -70 -197 -70zM7 0l275 1521h266l275 -1521h-193l-49 307h-331l-49 -307h-194zM278 481h275l-138 855z" />
    <glyph glyph-name="abreve" unicode="&#x103;" horiz-adv-x="890" 
d="M442 1283q-133 0 -199 71q-60 65 -62 174h113q7 -67 35 -97q34 -37 113 -37q76 0 111 35q30 30 36 99h114q-5 -113 -64 -175q-67 -70 -197 -70zM390 -19q-171 0 -244 111q-60 91 -60 265q0 167 51 240q68 95 251 95q111 0 199 -32v122q0 129 -22 182q-33 78 -131 78
q-90 0 -124 -70q-24 -49 -24 -145v-20h-187v18q0 176 60 271q79 126 274 126q191 0 273 -113q68 -93 68 -274v-835h-186v131q-26 -73 -70 -108q-52 -42 -128 -42zM430 161q88 0 127 78q30 60 30 167v91q-57 38 -160 38q-97 0 -130 -58q-23 -40 -23 -123q0 -92 30 -136
q37 -57 126 -57z" />
    <glyph glyph-name="Aogonek" unicode="&#x104;" horiz-adv-x="852" 
d="M746 -416q-91 0 -148 48q-65 54 -65 161q0 74 38 126q30 41 94 81h-35l-49 307h-331l-49 -307h-194l275 1521h266l275 -1521q-62 -39 -92 -83t-30 -109q0 -93 81 -93q54 0 89 22l12 -109q-44 -44 -137 -44zM278 481h275l-138 855z" />
    <glyph glyph-name="aogonek" unicode="&#x105;" horiz-adv-x="890" 
d="M696 -416q-91 0 -148 48q-65 54 -65 161q0 74 38 126q30 41 94 81h-27v131q-26 -73 -70 -108q-52 -42 -128 -42q-171 0 -244 111q-60 91 -60 265q0 167 51 240q68 95 251 95q111 0 199 -32v122q0 129 -22 182q-33 78 -131 78q-90 0 -124 -70q-24 -49 -24 -145v-20h-187
v18q0 176 60 271q79 126 274 126q191 0 273 -113q68 -93 68 -274v-835h-1q-62 -39 -92 -83t-30 -109q0 -93 81 -93q54 0 89 22l12 -109q-44 -44 -137 -44zM430 161q88 0 127 78q30 60 30 167v91q-57 38 -160 38q-97 0 -130 -58q-23 -40 -23 -123q0 -92 30 -136
q37 -57 126 -57z" />
    <glyph glyph-name="Cacute" unicode="&#x106;" horiz-adv-x="870" 
d="M353 1602l129 263h182l-168 -263h-143zM442 -18q-205 0 -290 136q-64 103 -64 302v681q0 202 65 305q84 134 289 134q140 0 226 -63q72 -55 103 -157q25 -82 25 -199v-65h-192v64q0 112 -27 164q-38 73 -135 73q-99 0 -135 -76q-27 -59 -27 -181v-679q0 -124 25 -177
q36 -79 137 -79q95 0 133 70q29 54 29 166v65h192v-66q0 -118 -26 -199q-33 -103 -104 -156q-83 -63 -224 -63z" />
    <glyph glyph-name="cacute" unicode="&#x107;" horiz-adv-x="846" 
d="M360 1312l129 263h182l-168 -263h-143zM431 -18q-142 0 -223 65q-70 55 -98 162q-22 84 -22 214v302v55q0 36 1 55q2 182 69 274q82 113 271 113q203 0 284 -126q57 -92 57 -271v-18h-186v20q0 102 -21 145q-34 70 -134 70q-99 0 -131 -78q-22 -53 -22 -182v-272
q0 -133 4 -196q7 -68 37 -106q36 -46 112 -46q97 0 132 67q23 46 23 149v17h186v-16q0 -113 -21 -190q-27 -96 -97 -148q-80 -59 -221 -59z" />
    <glyph glyph-name="Ccircumflex" unicode="&#x108;" horiz-adv-x="870" 
d="M202 1602l137 236h181l138 -236h-160l-68 133l-68 -133h-160zM442 -18q-205 0 -290 136q-64 103 -64 302v681q0 202 65 305q84 134 289 134q140 0 226 -63q72 -55 103 -157q25 -82 25 -199v-65h-192v64q0 112 -27 164q-38 73 -135 73q-99 0 -135 -76q-27 -59 -27 -181
v-679q0 -124 25 -177q36 -79 137 -79q95 0 133 70q29 54 29 166v65h192v-66q0 -118 -26 -199q-33 -103 -104 -156q-83 -63 -224 -63z" />
    <glyph glyph-name="ccircumflex" unicode="&#x109;" horiz-adv-x="846" 
d="M201 1283l137 236h181l138 -236h-160l-68 133l-68 -133h-160zM431 -18q-142 0 -223 65q-70 55 -98 162q-22 84 -22 214v302v55q0 36 1 55q2 182 69 274q82 113 271 113q203 0 284 -126q57 -92 57 -271v-18h-186v20q0 102 -21 145q-34 70 -134 70q-99 0 -131 -78
q-22 -53 -22 -182v-272q0 -133 4 -196q7 -68 37 -106q36 -46 112 -46q97 0 132 67q23 46 23 149v17h186v-16q0 -113 -21 -190q-27 -96 -97 -148q-80 -59 -221 -59z" />
    <glyph glyph-name="Cdotaccent" unicode="&#x10a;" horiz-adv-x="870" 
d="M428 1618q-59 0 -86.5 26.5t-27.5 80.5q0 57 27.5 84t86.5 27q63 0 90.5 -26.5t27.5 -84.5q0 -55 -27.5 -81t-90.5 -26zM442 -18q-205 0 -290 136q-64 103 -64 302v681q0 202 65 305q84 134 289 134q140 0 226 -63q72 -55 103 -157q25 -82 25 -199v-65h-192v64
q0 112 -27 164q-38 73 -135 73q-99 0 -135 -76q-27 -59 -27 -181v-679q0 -124 25 -177q36 -79 137 -79q95 0 133 70q29 54 29 166v65h192v-66q0 -118 -26 -199q-33 -103 -104 -156q-83 -63 -224 -63z" />
    <glyph glyph-name="cdotaccent" unicode="&#x10b;" horiz-adv-x="846" 
d="M427 1299q-59 0 -86.5 26.5t-27.5 80.5q0 57 27.5 84t86.5 27q63 0 90.5 -26.5t27.5 -84.5q0 -55 -27.5 -81t-90.5 -26zM431 -18q-142 0 -223 65q-70 55 -98 162q-22 84 -22 214v302v55q0 36 1 55q2 182 69 274q82 113 271 113q203 0 284 -126q57 -92 57 -271v-18h-186
v20q0 102 -21 145q-34 70 -134 70q-99 0 -131 -78q-22 -53 -22 -182v-272q0 -133 4 -196q7 -68 37 -106q36 -46 112 -46q97 0 132 67q23 46 23 149v17h186v-16q0 -113 -21 -190q-27 -96 -97 -148q-80 -59 -221 -59z" />
    <glyph glyph-name="Ccaron" unicode="&#x10c;" horiz-adv-x="870" 
d="M339 1602l-138 236h160l68 -133l69 133h159l-137 -236h-181zM442 -18q-205 0 -290 136q-64 103 -64 302v681q0 202 65 305q84 134 289 134q140 0 226 -63q72 -55 103 -157q25 -82 25 -199v-65h-192v64q0 112 -27 164q-38 73 -135 73q-99 0 -135 -76q-27 -59 -27 -181
v-679q0 -124 25 -177q36 -79 137 -79q95 0 133 70q29 54 29 166v65h192v-66q0 -118 -26 -199q-33 -103 -104 -156q-83 -63 -224 -63z" />
    <glyph glyph-name="ccaron" unicode="&#x10d;" horiz-adv-x="846" 
d="M338 1283l-138 236h160l68 -133l69 133h159l-137 -236h-181zM431 -18q-142 0 -223 65q-70 55 -98 162q-22 84 -22 214v302v55q0 36 1 55q2 182 69 274q82 113 271 113q203 0 284 -126q57 -92 57 -271v-18h-186v20q0 102 -21 145q-34 70 -134 70q-99 0 -131 -78
q-22 -53 -22 -182v-272q0 -133 4 -196q7 -68 37 -106q36 -46 112 -46q97 0 132 67q23 46 23 149v17h186v-16q0 -113 -21 -190q-27 -96 -97 -148q-80 -59 -221 -59z" />
    <glyph glyph-name="Dcaron" unicode="&#x10e;" horiz-adv-x="908" 
d="M342 1602l-138 236h160l68 -133l69 133h159l-137 -236h-181zM126 0v1520h344q201 0 285 -130q66 -104 66 -303v-654q0 -201 -66 -303q-85 -130 -287 -130h-342zM316 183h152q89 0 126.5 60.5t37.5 190.5v652q0 127 -34 185q-36 61 -121 65h-161v-1153z" />
    <glyph glyph-name="dcaron" unicode="&#x10f;" horiz-adv-x="890" 
d="M386 -19q-186 0 -252 137q-49 99 -49 305v356q0 138 18 216q25 108 84 162q70 64 197 64q143 0 195 -142v489h187v-1568h-187v122q-52 -141 -193 -141zM867 1281l-19 287h173l-21 -287h-133zM426 161q84 0 121 70q27 51 32 158v432q-6 105 -31 152q-36 68 -122 68
q-98 0 -130 -78q-23 -53 -23 -182v-361q0 -129 21 -179q32 -80 132 -80z" />
    <glyph glyph-name="Dcroat" unicode="&#x110;" horiz-adv-x="919" 
d="M114 0v663h-132v146h132v711h344q201 0 285 -130q66 -104 66 -303v-654q0 -201 -66 -303q-85 -130 -287 -130h-342zM304 183h152q89 0 126.5 60.5t37.5 190.5v652q0 127 -34 185q-36 61 -121 65h-161v-527h125v-146h-125v-480z" />
    <glyph glyph-name="dcroat" unicode="&#x111;" horiz-adv-x="890" 
d="M386 -19q-186 0 -252 137q-49 99 -49 305v356q0 138 18 216q25 108 84 162q70 64 197 64q143 0 195 -142v221h-121v167h121v101h187v-101h94v-167h-94v-1300h-187v122q-52 -141 -193 -141zM426 161q84 0 121 70q27 51 32 158v432q-6 105 -31 152q-36 68 -122 68
q-98 0 -130 -78q-23 -53 -23 -182v-361q0 -129 21 -179q32 -80 132 -80z" />
    <glyph glyph-name="Emacron" unicode="&#x112;" horiz-adv-x="795" 
d="M196 1680v146h447v-146h-447zM122 0v1520l613 1v-184l-422 -1v-467h353v-184h-353v-502h422v-183h-613z" />
    <glyph glyph-name="emacron" unicode="&#x113;" horiz-adv-x="853" 
d="M204 1361v146h447v-146h-447zM430 -18q-206 0 -285 137q-58 100 -58 304v356q0 132 22 216q28 108 98 163q82 64 221 64q204 0 284 -127q57 -93 57 -280v-225l-496 -88v-80q0 -129 21 -179q33 -81 134 -81q98 0 132 67q23 46 23 154v23h186v-22q0 -188 -57 -279
q-79 -123 -282 -123zM273 665l310 59v93q0 109 -21 154q-33 71 -134 71q-98 0 -131 -78q-24 -55 -24 -183v-116z" />
    <glyph glyph-name="Ebreve" unicode="&#x114;" horiz-adv-x="795" 
d="M419 1602q-133 0 -199 71q-60 65 -62 174h113q7 -67 35 -97q34 -37 113 -37q76 0 111 35q30 30 36 99h114q-5 -113 -64 -175q-67 -70 -197 -70zM122 0v1520l613 1v-184l-422 -1v-467h353v-184h-353v-502h422v-183h-613z" />
    <glyph glyph-name="ebreve" unicode="&#x115;" horiz-adv-x="853" 
d="M424 1283q-133 0 -199 71q-60 65 -62 174h113q7 -67 35 -97q34 -37 113 -37q76 0 111 35q30 30 36 99h114q-5 -113 -64 -175q-67 -70 -197 -70zM430 -18q-206 0 -285 137q-58 100 -58 304v356q0 132 22 216q28 108 98 163q82 64 221 64q204 0 284 -127q57 -93 57 -280
v-225l-496 -88v-80q0 -129 21 -179q33 -81 134 -81q98 0 132 67q23 46 23 154v23h186v-22q0 -188 -57 -279q-79 -123 -282 -123zM273 665l310 59v93q0 109 -21 154q-33 71 -134 71q-98 0 -131 -78q-24 -55 -24 -183v-116z" />
    <glyph glyph-name="Edotaccent" unicode="&#x116;" horiz-adv-x="795" 
d="M423 1618q-59 0 -86.5 26.5t-27.5 80.5q0 57 27.5 84t86.5 27q63 0 90.5 -26.5t27.5 -84.5q0 -55 -27.5 -81t-90.5 -26zM122 0v1520l613 1v-184l-422 -1v-467h353v-184h-353v-502h422v-183h-613z" />
    <glyph glyph-name="edotaccent" unicode="&#x117;" horiz-adv-x="853" 
d="M426 1299q-59 0 -86.5 26.5t-27.5 80.5q0 57 27.5 84t86.5 27q63 0 90.5 -26.5t27.5 -84.5q0 -55 -27.5 -81t-90.5 -26zM430 -18q-206 0 -285 137q-58 100 -58 304v356q0 132 22 216q28 108 98 163q82 64 221 64q204 0 284 -127q57 -93 57 -280v-225l-496 -88v-80
q0 -129 21 -179q33 -81 134 -81q98 0 132 67q23 46 23 154v23h186v-22q0 -188 -57 -279q-79 -123 -282 -123zM273 665l310 59v93q0 109 -21 154q-33 71 -134 71q-98 0 -131 -78q-24 -55 -24 -183v-116z" />
    <glyph glyph-name="Eogonek" unicode="&#x118;" horiz-adv-x="795" 
d="M657 -416q-91 0 -148 48q-65 54 -65 161q0 74 38 126q30 41 94 81h-454v1520l613 1v-184l-422 -1v-467h353v-184h-353v-502h422v-183h-1q-62 -39 -92 -83t-30 -109q0 -93 81 -93q54 0 89 22l12 -109q-44 -44 -137 -44z" />
    <glyph glyph-name="eogonek" unicode="&#x119;" horiz-adv-x="853" 
d="M593 -361q-91 0 -148 48q-65 54 -65 161q0 79 44 134q-139 1 -219 67q-70 56 -96 162q-22 83 -22 212v356q0 132 22 216q28 108 98 163q82 64 221 64q204 0 284 -127q57 -93 57 -280v-225l-496 -88v-80q0 -129 21 -179q33 -81 134 -81q98 0 132 67q23 46 23 154v23h186
v-22q0 -112 -18 -184q-22 -91 -82 -145h1l-4 -3q-20 -16 -38 -26q-80 -64 -80 -163q0 -93 81 -93q54 0 89 22l12 -109q-44 -44 -137 -44zM273 665l310 59v93q0 109 -21 154q-33 71 -134 71q-98 0 -131 -78q-24 -55 -24 -183v-116z" />
    <glyph glyph-name="Ecaron" unicode="&#x11a;" horiz-adv-x="795" 
d="M328 1602l-138 236h160l68 -133l69 133h159l-137 -236h-181zM122 0v1520l613 1v-184l-422 -1v-467h353v-184h-353v-502h422v-183h-613z" />
    <glyph glyph-name="ecaron" unicode="&#x11b;" horiz-adv-x="853" 
d="M337 1283l-138 236h160l68 -133l69 133h159l-137 -236h-181zM430 -18q-206 0 -285 137q-58 100 -58 304v356q0 132 22 216q28 108 98 163q82 64 221 64q204 0 284 -127q57 -93 57 -280v-225l-496 -88v-80q0 -129 21 -179q33 -81 134 -81q98 0 132 67q23 46 23 154v23h186
v-22q0 -188 -57 -279q-79 -123 -282 -123zM273 665l310 59v93q0 109 -21 154q-33 71 -134 71q-98 0 -131 -78q-24 -55 -24 -183v-116z" />
    <glyph glyph-name="Gcircumflex" unicode="&#x11c;" horiz-adv-x="879" 
d="M214 1602l137 236h181l138 -236h-160l-68 133l-68 -133h-160zM441 -18q-204 0 -290 136q-63 100 -63 302v681q0 202 65 305q84 134 289 134q202 0 289 -134q64 -100 64 -285v-65h-191v64q0 111 -27 163q-39 74 -135 74q-99 0 -136 -76q-27 -56 -27 -181v-679
q0 -124 25 -177q36 -79 137 -79q96 0 134 70q29 54 29 166v212h-171v182h362v-395q0 -185 -65 -286q-87 -132 -289 -132z" />
    <glyph glyph-name="gcircumflex" unicode="&#x11d;" horiz-adv-x="880" 
d="M209 1283l137 236h181l138 -236h-160l-68 133l-68 -133h-160zM465 -408q-181 0 -274 49l14 158q31 -14 105 -23q59 -7 129 -7q76 0 108 50q33 50 33 172v131q-52 -141 -193 -141q-186 0 -252 137q-49 99 -49 305v356q0 138 18 216q25 108 84 162q70 64 197 64
q143 0 195 -142v123h188v-1211q0 -199 -62 -291q-72 -108 -241 -108zM427 161q84 0 121 70q27 51 32 158v432q-6 105 -31 152q-36 68 -122 68q-97 0 -130 -78q-23 -53 -23 -182v-361q0 -129 21 -179q32 -80 132 -80z" />
    <glyph glyph-name="Gbreve" unicode="&#x11e;" horiz-adv-x="879" 
d="M442 1602q-133 0 -199 71q-60 65 -62 174h113q7 -67 35 -97q34 -37 113 -37q76 0 111 35q30 30 36 99h114q-5 -113 -64 -175q-67 -70 -197 -70zM441 -18q-204 0 -290 136q-63 100 -63 302v681q0 202 65 305q84 134 289 134q202 0 289 -134q64 -100 64 -285v-65h-191v64
q0 111 -27 163q-39 74 -135 74q-99 0 -136 -76q-27 -56 -27 -181v-679q0 -124 25 -177q36 -79 137 -79q96 0 134 70q29 54 29 166v212h-171v182h362v-395q0 -185 -65 -286q-87 -132 -289 -132z" />
    <glyph glyph-name="gbreve" unicode="&#x11f;" horiz-adv-x="880" 
d="M439 1283q-133 0 -199 71q-60 65 -62 174h113q7 -67 35 -97q34 -37 113 -37q76 0 111 35q30 30 36 99h114q-5 -113 -64 -175q-67 -70 -197 -70zM465 -408q-181 0 -274 49l14 158q31 -14 105 -23q59 -7 129 -7q76 0 108 50q33 50 33 172v131q-52 -141 -193 -141
q-186 0 -252 137q-49 99 -49 305v356q0 138 18 216q25 108 84 162q70 64 197 64q143 0 195 -142v123h188v-1211q0 -199 -62 -291q-72 -108 -241 -108zM427 161q84 0 121 70q27 51 32 158v432q-6 105 -31 152q-36 68 -122 68q-97 0 -130 -78q-23 -53 -23 -182v-361
q0 -129 21 -179q32 -80 132 -80z" />
    <glyph glyph-name="Gdotaccent" unicode="&#x120;" horiz-adv-x="879" 
d="M439 1618q-59 0 -86.5 26.5t-27.5 80.5q0 57 27.5 84t86.5 27q63 0 90.5 -26.5t27.5 -84.5q0 -55 -27.5 -81t-90.5 -26zM441 -18q-204 0 -290 136q-63 100 -63 302v681q0 202 65 305q84 134 289 134q202 0 289 -134q64 -100 64 -285v-65h-191v64q0 111 -27 163
q-39 74 -135 74q-99 0 -136 -76q-27 -56 -27 -181v-679q0 -124 25 -177q36 -79 137 -79q96 0 134 70q29 54 29 166v212h-171v182h362v-395q0 -185 -65 -286q-87 -132 -289 -132z" />
    <glyph glyph-name="gdotaccent" unicode="&#x121;" horiz-adv-x="880" 
d="M440 1299q-59 0 -86.5 26.5t-27.5 80.5q0 57 27.5 84t86.5 27q63 0 90.5 -26.5t27.5 -84.5q0 -55 -27.5 -81t-90.5 -26zM465 -408q-181 0 -274 49l14 158q31 -14 105 -23q59 -7 129 -7q76 0 108 50q33 50 33 172v131q-52 -141 -193 -141q-186 0 -252 137q-49 99 -49 305
v356q0 138 18 216q25 108 84 162q70 64 197 64q143 0 195 -142v123h188v-1211q0 -199 -62 -291q-72 -108 -241 -108zM427 161q84 0 121 70q27 51 32 158v432q-6 105 -31 152q-36 68 -122 68q-97 0 -130 -78q-23 -53 -23 -182v-361q0 -129 21 -179q32 -80 132 -80z" />
    <glyph glyph-name="Gcommaaccent" unicode="&#x122;" horiz-adv-x="879" 
d="M441 -18q-204 0 -290 136q-63 100 -63 302v681q0 202 65 305q84 134 289 134q202 0 289 -134q64 -100 64 -285v-65h-191v64q0 111 -27 163q-39 74 -135 74q-99 0 -136 -76q-27 -56 -27 -181v-679q0 -124 25 -177q36 -79 137 -79q96 0 134 70q29 54 29 166v212h-171v182
h362v-395q0 -185 -65 -286q-87 -132 -289 -132zM457 -409l-74 41q27 43 37 68t15 65q-93 0 -93 88q0 47 23.5 68.5t73.5 21.5q101 0 101 -109q0 -83 -27 -149q-21 -52 -56 -94z" />
    <glyph glyph-name="gcommaaccent" unicode="&#x123;" horiz-adv-x="880" 
d="M449 1349q-101 0 -101 109q0 82 27 150q21 51 56 93l74 -41q-27 -43 -37 -68t-15 -65q93 0 93 -88q0 -47 -23.5 -68.5t-73.5 -21.5zM465 -408q-181 0 -274 49l14 158q31 -14 105 -23q59 -7 129 -7q76 0 108 50q33 50 33 172v131q-52 -141 -193 -141q-186 0 -252 137
q-49 99 -49 305v356q0 138 18 216q25 108 84 162q70 64 197 64q143 0 195 -142v123h188v-1211q0 -199 -62 -291q-72 -108 -241 -108zM427 161q84 0 121 70q27 51 32 158v432q-6 105 -31 152q-36 68 -122 68q-97 0 -130 -78q-23 -53 -23 -182v-361q0 -129 21 -179
q32 -80 132 -80z" />
    <glyph glyph-name="Hcircumflex" unicode="&#x124;" horiz-adv-x="968" 
d="M257 1602l137 236h181l138 -236h-160l-68 133l-68 -133h-160zM127 0v1521h191v-662h333v662h191v-1521h-191v674h-333v-674h-191z" />
    <glyph glyph-name="hcircumflex" unicode="&#x125;" horiz-adv-x="908" 
d="M232 1605l137 236h181l138 -236h-160l-68 133l-68 -133h-160zM120 0v1567h187v-492q49 145 197 145q181 0 249 -137q47 -98 47 -304v-779h-187v782q0 127 -20 179q-33 80 -134 80q-94 0 -128 -95q-24 -64 -24 -199v-747h-187z" />
    <glyph glyph-name="Hbar" unicode="&#x126;" horiz-adv-x="968" 
d="M127 0v1521h191v-293h333v293h191v-1521h-191v674h-333v-674h-191zM318 859h333v223h-333v-223z" />
    <glyph glyph-name="hbar" unicode="&#x127;" horiz-adv-x="908" 
d="M120 0v1333h-78v146h78v88h187v-88h182v-146h-182v-258q49 145 197 145q181 0 249 -137q47 -98 47 -304v-779h-187v782q0 127 -20 179q-33 80 -134 80q-94 0 -128 -95q-24 -64 -24 -199v-747h-187z" />
    <glyph glyph-name="Itilde" unicode="&#x128;" horiz-adv-x="446" 
d="M317 1641q-47 0 -109 34q-64 34 -91 34q-57 0 -91 -67l-94 39q27 79 70 123q46 48 114 48q44 0 112 -34q4 -2 15.5 -8t16 -8.5t14 -7t15.5 -6.5t14.5 -3.5t15.5 -1.5q51 0 85 67l95 -37q-25 -79 -67 -123q-47 -49 -115 -49zM128 0v1521h191v-1521h-191z" />
    <glyph glyph-name="itilde" unicode="&#x129;" horiz-adv-x="425" 
d="M315 1322q-47 0 -109 34q-64 34 -91 34q-57 0 -91 -67l-94 39q27 79 70 123q46 48 114 48q44 0 112 -34q4 -2 15.5 -8t16 -8.5t14 -7t15.5 -6.5t14.5 -3.5t15.5 -1.5q51 0 85 67l95 -37q-25 -79 -67 -123q-47 -49 -115 -49zM120 0v1202h187v-1202h-187z" />
    <glyph glyph-name="Imacron" unicode="&#x12a;" horiz-adv-x="446" 
d="M-8 1680v146h447v-146h-447zM128 0v1521h191v-1521h-191z" />
    <glyph glyph-name="imacron" unicode="&#x12b;" horiz-adv-x="425" 
d="M-10 1361v146h447v-146h-447zM120 0v1202h187v-1202h-187z" />
    <glyph glyph-name="Ibreve" unicode="&#x12c;" horiz-adv-x="446" 
d="M216 1602q-133 0 -199 71q-60 65 -62 174h113q7 -67 35 -97q34 -37 113 -37q76 0 111 35q30 30 36 99h114q-5 -113 -64 -175q-67 -70 -197 -70zM128 0v1521h191v-1521h-191z" />
    <glyph glyph-name="ibreve" unicode="&#x12d;" horiz-adv-x="425" 
d="M214 1283q-133 0 -199 71q-60 65 -62 174h113q7 -67 35 -97q34 -37 113 -37q76 0 111 35q30 30 36 99h114q-5 -113 -64 -175q-67 -70 -197 -70zM120 0v1202h187v-1202h-187z" />
    <glyph glyph-name="Iogonek" unicode="&#x12e;" horiz-adv-x="446" 
d="M233 -416q-91 0 -148 48q-65 54 -65 161q0 74 38 126q30 41 94 81h-24v1521h191v-1521h-9q-62 -39 -92 -83t-30 -109q0 -93 81 -93q54 0 89 22l12 -109q-44 -44 -137 -44z" />
    <glyph glyph-name="iogonek" unicode="&#x12f;" horiz-adv-x="425" 
d="M212 1383q-112 0 -112 95q0 98 112 98q61 0 88.5 -24t27.5 -74q0 -49 -27.5 -72t-88.5 -23zM230 -416q-91 0 -148 48q-65 54 -65 161q0 74 38 126q30 41 94 81h-29v1202h187v-1202q-62 -39 -92 -83t-30 -109q0 -93 81 -93q54 0 89 22l12 -109q-44 -44 -137 -44z" />
    <glyph glyph-name="Idotaccent" unicode="&#x130;" horiz-adv-x="446" 
d="M213 1618q-59 0 -86.5 26.5t-27.5 80.5q0 57 27.5 84t86.5 27q63 0 90.5 -26.5t27.5 -84.5q0 -55 -27.5 -81t-90.5 -26zM128 0v1521h191v-1521h-191z" />
    <glyph glyph-name="dotlessi" unicode="&#x131;" horiz-adv-x="425" 
d="M120 0v1202h187v-1202h-187z" />
    <glyph glyph-name="IJ" unicode="&#x132;" horiz-adv-x="1088" 
d="M128 0v1521h191v-1521h-191zM637 -16q-119 0 -185 54l58 161q25 -17 52 -24q30 -8 75 -8q86 0 116 45t30 171v953h-219v184h409v-1145q0 -194 -61 -282q-77 -109 -275 -109z" />
    <glyph glyph-name="ij" unicode="&#x133;" horiz-adv-x="854" 
d="M217 1383q-112 0 -112 95q0 98 112 98q61 0 88 -24t27 -74q0 -49 -27 -72t-88 -23zM618 1383q-112 0 -112 95q0 98 112 98q60 0 87.5 -24t27.5 -74q0 -49 -27.5 -72t-87.5 -23zM124 0v1202h188v-1202h-188zM441 -408q-106 0 -191 59l14 157q70 -39 152 -39q72 0 93 50
q17 40 17 172v1211h189v-1211q0 -207 -48 -292q-60 -107 -226 -107z" />
    <glyph glyph-name="Jcircumflex" unicode="&#x134;" horiz-adv-x="642" 
d="M94 1593l137 236h181l138 -236h-160l-68 133l-68 -133h-160zM191 -16q-119 0 -185 54l58 161q25 -17 52 -24q30 -8 75 -8q86 0 116 45t30 171v953h-219v184h409v-1145q0 -194 -61 -282q-77 -109 -275 -109z" />
    <glyph glyph-name="jcircumflex" unicode="&#x135;" horiz-adv-x="427" 
d="M-16 1283l137 236h181l138 -236h-160l-68 133l-68 -133h-160zM33 -408q-106 0 -191 59l14 157q70 -39 152 -39q71 0 94 50q17 40 17 172v1211h188v-1211q0 -209 -47 -292q-60 -107 -227 -107z" />
    <glyph glyph-name="Kcommaaccent" unicode="&#x136;" horiz-adv-x="905" 
d="M126 0v1521h191v-662h107l254 661h205l-279 -746l302 -774h-205l-272 674h-112v-674h-191zM522 -409l-74 41q27 43 37 68t15 65q-93 0 -93 88q0 47 23.5 68.5t73.5 21.5q101 0 101 -109q0 -83 -27 -149q-21 -52 -56 -94z" />
    <glyph glyph-name="kcommaaccent" unicode="&#x137;" horiz-adv-x="849" 
d="M118 0v1568h187v-873h98l215 507h192l-268 -601l303 -601h-208l-236 512h-96v-512h-187zM478 -409l-74 41q27 43 37 68t15 65q-93 0 -93 88q0 47 23.5 68.5t73.5 21.5q101 0 101 -109q0 -83 -27 -149q-21 -52 -56 -94z" />
    <glyph glyph-name="kgreenlandic" unicode="&#x138;" horiz-adv-x="849" 
d="M118 0v1201h187v-506h98l215 507h192l-268 -601l303 -601h-208l-236 512h-96v-512h-187z" />
    <glyph glyph-name="Lacute" unicode="&#x139;" horiz-adv-x="735" 
d="M147 1602l129 263h182l-168 -263h-143zM126 0v1521h190v-1339h407v-182h-597z" />
    <glyph glyph-name="lacute" unicode="&#x13a;" horiz-adv-x="426" 
d="M143 1629l129 263h182l-168 -263h-143zM118 0v1568h188v-1568h-188z" />
    <glyph glyph-name="Lcommaaccent" unicode="&#x13b;" horiz-adv-x="735" 
d="M126 0v1521h190v-1339h407v-182h-597zM438 -409l-74 41q27 43 37 68t15 65q-93 0 -93 88q0 47 23.5 68.5t73.5 21.5q101 0 101 -109q0 -83 -27 -149q-21 -52 -56 -94z" />
    <glyph glyph-name="lcommaaccent" unicode="&#x13c;" horiz-adv-x="426" 
d="M118 0v1568h188v-1568h-188zM228 -409l-74 41q27 43 37 68t15 65q-93 0 -93 88q0 47 23.5 68.5t73.5 21.5q101 0 101 -109q0 -83 -27 -149q-21 -52 -56 -94z" />
    <glyph glyph-name="Lcaron" unicode="&#x13d;" horiz-adv-x="735" 
d="M130 1598l-138 236h160l68 -133l69 133h159l-137 -236h-181zM126 0v1521h190v-1339h407v-182h-597z" />
    <glyph glyph-name="lcaron" unicode="&#x13e;" horiz-adv-x="426" 
d="M122 1656l-138 236h160l68 -133l69 133h159l-137 -236h-181zM118 0v1568h188v-1568h-188z" />
    <glyph glyph-name="Ldot" unicode="&#x13f;" horiz-adv-x="735" 
d="M126 0v1521h190v-1339h407v-182h-597zM607 622q-114 0 -114 108q0 57 27.5 84t86.5 27q63 0 90.5 -26.5t27.5 -84.5q0 -55 -27.5 -81.5t-90.5 -26.5z" />
    <glyph glyph-name="ldot" unicode="&#x140;" horiz-adv-x="426" 
d="M211 1700q-59 0 -86.5 26.5t-27.5 80.5q0 57 27.5 84t86.5 27q63 0 90.5 -26.5t27.5 -84.5q0 -55 -27.5 -81t-90.5 -26zM118 0v1568h188v-1568h-188z" />
    <glyph glyph-name="Lslash" unicode="&#x141;" horiz-adv-x="738" 
d="M127 0v459l-102 -82v212l102 83v849h190v-695l168 137v-213l-168 -137v-431h407v-182h-597z" />
    <glyph glyph-name="lslash" unicode="&#x142;" horiz-adv-x="444" 
d="M126 0v597l-163 -135v178l163 135v793h188v-637l163 135v-179l-163 -135v-752h-188z" />
    <glyph glyph-name="Nacute" unicode="&#x143;" horiz-adv-x="1007" 
d="M423 1602l129 263h182l-168 -263h-143zM127 0v1521h254l314 -1132l-6 1132h191l4 -1521h-241l-333 1147l8 -1147h-191z" />
    <glyph glyph-name="nacute" unicode="&#x144;" horiz-adv-x="908" 
d="M386 1283l129 263h182l-168 -263h-143zM120 0v1202h187v-133q28 67 84 107q62 44 138 44q121 0 185 -64q53 -54 73 -164q13 -70 13 -213v-779h-187v782q0 133 -18 179q-32 80 -131 80q-93 0 -130 -95q-27 -69 -27 -199v-747h-187z" />
    <glyph glyph-name="Ncommaaccent" unicode="&#x145;" horiz-adv-x="1008" 
d="M127 0v1521h254l314 -1132l-6 1132h191l4 -1521h-241l-333 1147l8 -1147h-191zM521 -409l-74 41q27 43 37 68t15 65q-93 0 -93 88q0 47 23.5 68.5t73.5 21.5q101 0 101 -109q0 -83 -27 -149q-21 -52 -56 -94z" />
    <glyph glyph-name="ncommaaccent" unicode="&#x146;" horiz-adv-x="908" 
d="M120 0v1202h187v-133q28 67 84 107q62 44 138 44q121 0 185 -64q53 -54 73 -164q13 -70 13 -213v-779h-187v782q0 133 -18 179q-32 80 -131 80q-93 0 -130 -95q-27 -69 -27 -199v-747h-187zM486 -409l-74 41q27 43 37 68t15 65q-93 0 -93 88q0 47 23.5 68.5t73.5 21.5
q101 0 101 -109q0 -83 -27 -149q-21 -52 -56 -94z" />
    <glyph glyph-name="Ncaron" unicode="&#x147;" horiz-adv-x="1008" 
d="M425 1602l-138 236h160l68 -133l69 133h159l-137 -236h-181zM127 0v1521h254l314 -1132l-6 1132h191l4 -1521h-241l-333 1147l8 -1147h-191z" />
    <glyph glyph-name="ncaron" unicode="&#x148;" horiz-adv-x="908" 
d="M375 1283l-138 236h160l68 -133l69 133h159l-137 -236h-181zM120 0v1202h187v-133q28 67 84 107q62 44 138 44q121 0 185 -64q53 -54 73 -164q13 -70 13 -213v-779h-187v782q0 133 -18 179q-32 80 -131 80q-93 0 -130 -95q-27 -69 -27 -199v-747h-187z" />
    <glyph glyph-name="napostrophe" unicode="&#x149;" horiz-adv-x="1078" 
d="M132 870l-74 41q27 43 37 68t15 65q-93 0 -93 88q0 47 23.5 68.5t73.5 21.5q101 0 101 -109q0 -83 -27 -149q-21 -52 -56 -94zM291 0v1202h187v-133q28 67 84 107q62 44 138 44q121 0 185 -64q53 -54 73 -164q13 -70 13 -213v-779h-187v782q0 133 -18 179q-32 80 -131 80
q-93 0 -130 -95q-27 -69 -27 -199v-747h-187z" />
    <glyph glyph-name="Eng" unicode="&#x14a;" horiz-adv-x="968" 
d="M520 -420q-120 0 -185 54l58 162q26 -18 51 -24q30 -8 76 -8q84 0 115 46q29 42 29 170v20l-346 979v-979h-191v1521h191v-1h23l328 -963v964h191v-1535q0 -203 -60 -292q-78 -114 -280 -114z" />
    <glyph glyph-name="eng" unicode="&#x14b;" horiz-adv-x="908" 
d="M526 -405q-109 0 -190 59l13 155q67 -37 152 -37q71 0 94 50q18 42 18 172v788q0 127 -20 179q-33 80 -134 80q-94 0 -128 -95q-24 -64 -24 -199v-747h-187v1202h187v-127q49 145 197 145q181 0 249 -137q47 -98 47 -304v-785q0 -209 -47 -292q-60 -107 -227 -107z" />
    <glyph glyph-name="Omacron" unicode="&#x14c;" horiz-adv-x="883" 
d="M218 1680v146h447v-146h-447zM441 -18q-205 0 -290 136q-63 101 -63 302v681q0 204 65 305q84 134 288 134v-1l1 1q206 0 290 -135q64 -103 64 -304v-680q0 -202 -65 -305q-84 -134 -289 -134l-1 1v-1zM441 165h1q99 0 136 77q27 55 27 180v678q0 123 -25 178
q-37 78 -138 78q-4 0 -5 1q-96 -1 -131 -77q-27 -59 -27 -180v-679q0 -124 25 -177q36 -79 137 -79z" />
    <glyph glyph-name="omacron" unicode="&#x14d;" 
d="M197 1361v146h447v-146h-447zM429 -18q-206 0 -285 137q-58 100 -58 304v356q0 132 22 216q28 108 98 163q82 64 221 64q205 0 284 -137q57 -101 57 -305v-356q0 -207 -57 -306q-80 -136 -282 -136zM427 162q99 0 131 78q22 53 22 182v361q0 128 -20 179q-33 80 -133 80
q-99 0 -131 -78q-22 -53 -22 -182v-361q0 -128 21 -178q31 -81 132 -81z" />
    <glyph glyph-name="Obreve" unicode="&#x14e;" horiz-adv-x="883" 
d="M442 1602q-133 0 -199 71q-60 65 -62 174h113q7 -67 35 -97q34 -37 113 -37q76 0 111 35q30 30 36 99h114q-5 -113 -64 -175q-67 -70 -197 -70zM441 -18q-205 0 -290 136q-63 101 -63 302v681q0 204 65 305q84 134 288 134v-1l1 1q206 0 290 -135q64 -103 64 -304v-680
q0 -202 -65 -305q-84 -134 -289 -134l-1 1v-1zM441 165h1q99 0 136 77q27 55 27 180v678q0 123 -25 178q-37 78 -138 78q-4 0 -5 1q-96 -1 -131 -77q-27 -59 -27 -180v-679q0 -124 25 -177q36 -79 137 -79z" />
    <glyph glyph-name="obreve" unicode="&#x14f;" 
d="M419 1283q-133 0 -199 71q-60 65 -62 174h113q7 -67 35 -97q34 -37 113 -37q76 0 111 35q30 30 36 99h114q-5 -113 -64 -175q-67 -70 -197 -70zM429 -18q-206 0 -285 137q-58 100 -58 304v356q0 132 22 216q28 108 98 163q82 64 221 64q205 0 284 -137q57 -101 57 -305
v-356q0 -207 -57 -306q-80 -136 -282 -136zM427 162q99 0 131 78q22 53 22 182v361q0 128 -20 179q-33 80 -133 80q-99 0 -131 -78q-22 -53 -22 -182v-361q0 -128 21 -178q31 -81 132 -81z" />
    <glyph glyph-name="Ohungarumlaut" unicode="&#x150;" horiz-adv-x="883" 
d="M246 1602l129 263h173l-164 -263h-138zM479 1602l129 263h173l-164 -263h-138zM441 -18q-205 0 -290 136q-63 101 -63 302v681q0 204 65 305q84 134 288 134v-1l1 1q206 0 290 -135q64 -103 64 -304v-680q0 -202 -65 -305q-84 -134 -289 -134l-1 1v-1zM441 165h1
q99 0 136 77q27 55 27 180v678q0 123 -25 178q-37 78 -138 78q-4 0 -5 1q-96 -1 -131 -77q-27 -59 -27 -180v-679q0 -124 25 -177q36 -79 137 -79z" />
    <glyph glyph-name="ohungarumlaut" unicode="&#x151;" 
d="M182 1283l129 263h173l-164 -263h-138zM415 1283l129 263h173l-164 -263h-138zM429 -18q-206 0 -285 137q-58 100 -58 304v356q0 132 22 216q28 108 98 163q82 64 221 64q205 0 284 -137q57 -101 57 -305v-356q0 -207 -57 -306q-80 -136 -282 -136zM427 162q99 0 131 78
q22 53 22 182v361q0 128 -20 179q-33 80 -133 80q-99 0 -131 -78q-22 -53 -22 -182v-361q0 -128 21 -178q31 -81 132 -81z" />
    <glyph glyph-name="OE" unicode="&#x152;" horiz-adv-x="1291" 
d="M429 -16q-189 0 -265 130q-59 99 -59 302v690q0 204 59 304q77 129 264 129q99 0 164 -72v55l613 1v-183l-422 -1v-470h353v-184h-353v-502h422v-183h-613v70q-29 -40 -61 -60q-41 -26 -102 -26zM462 167q84 0 130 83v1023q-50 83 -133 83q-51 0 -88 -27q-27 -21 -47 -64
q-29 -93 -29 -248v-500q0 -167 31 -249q33 -101 136 -101z" />
    <glyph glyph-name="oe" unicode="&#x153;" horiz-adv-x="1396" 
d="M449 -18q-206 0 -285 137q-58 100 -58 304v356q0 132 22 216q28 108 98 163q82 64 221 64q166 0 247 -89q81 89 248 89q204 0 284 -127q57 -93 57 -280v-225l-496 -88v-80q0 -129 21 -179q33 -81 134 -81q98 0 132 67q23 46 23 154v23h186v-22q0 -188 -57 -279
q-79 -123 -282 -123q-166 0 -249 88q-80 -88 -246 -88zM447 162q97 0 130 78q22 53 22 182v361q0 128 -20 179q-33 80 -132 80t-132 -78q-22 -53 -22 -182v-361q0 -128 21 -178q31 -81 133 -81zM787 665l310 59v93q0 109 -21 154q-33 71 -134 71q-98 0 -131 -78
q-24 -55 -24 -183v-116z" />
    <glyph glyph-name="Racute" unicode="&#x154;" horiz-adv-x="919" 
d="M341 1602l129 263h182l-168 -263h-143zM127 0v1520h345q187 0 270 -89q85 -91 85 -300v-157q0 -95 -47 -179q-41 -74 -121 -126q63 -41 93 -102q29 -61 41 -175l20 -214q8 -84 54 -178h-200q-12 27 -24 70q-15 51 -21 103l-22 215q-11 112 -64 172q-44 48 -105 48h-113
v-608h-191zM318 792h152q77 0 122 53q44 52 44 129v159q0 121 -44 167q-36 36 -120 36h-154v-544z" />
    <glyph glyph-name="racute" unicode="&#x155;" horiz-adv-x="586" 
d="M261 1283l129 263h182l-168 -263h-143zM120 0v1202h187v-133q26 74 69 110q51 43 128 43v-1l1 1q40 0 73 -17l1 -194q-6 2 -14 6q-21 10 -55 17q-18 3 -39 3h-1q-94 0 -132 -85q-29 -62 -31 -185v-767h-187z" />
    <glyph glyph-name="Rcommaaccent" unicode="&#x156;" horiz-adv-x="919" 
d="M127 0v1520h345q187 0 270 -89q85 -91 85 -300v-157q0 -95 -47 -179q-41 -74 -121 -126q63 -41 93 -102q29 -61 41 -175l20 -214q8 -84 54 -178h-200q-12 27 -24 70q-15 51 -21 103l-22 215q-11 112 -64 172q-44 48 -105 48h-113v-608h-191zM318 792h152q77 0 122 53
q44 52 44 129v159q0 121 -44 167q-36 36 -120 36h-154v-544zM499 -409l-74 41q27 43 37 68t15 65q-93 0 -93 88q0 47 23.5 68.5t73.5 21.5q101 0 101 -109q0 -83 -27 -149q-21 -52 -56 -94z" />
    <glyph glyph-name="rcommaaccent" unicode="&#x157;" horiz-adv-x="586" 
d="M120 0v1202h187v-133q26 74 69 110q51 43 128 43v-1l1 1q40 0 73 -17l1 -194q-6 2 -14 6q-21 10 -55 17q-18 3 -39 3h-1q-94 0 -132 -85q-29 -62 -31 -185v-767h-187zM231 -409l-74 41q27 43 37 68t15 65q-93 0 -93 88q0 47 23.5 68.5t73.5 21.5q101 0 101 -109
q0 -83 -27 -149q-21 -52 -56 -94z" />
    <glyph glyph-name="Rcaron" unicode="&#x158;" horiz-adv-x="919" 
d="M334 1602l-138 236h160l68 -133l69 133h159l-137 -236h-181zM127 0v1520h345q187 0 270 -89q85 -91 85 -300v-157q0 -95 -47 -179q-41 -74 -121 -126q63 -41 93 -102q29 -61 41 -175l20 -214q8 -84 54 -178h-200q-12 27 -24 70q-15 51 -21 103l-22 215q-11 112 -64 172
q-44 48 -105 48h-113v-608h-191zM318 792h152q77 0 122 53q44 52 44 129v159q0 121 -44 167q-36 36 -120 36h-154v-544z" />
    <glyph glyph-name="rcaron" unicode="&#x159;" horiz-adv-x="586" 
d="M249 1283l-138 236h160l68 -133l69 133h159l-137 -236h-181zM120 0v1202h187v-133q26 74 69 110q51 43 128 43v-1l1 1q40 0 73 -17l1 -194q-6 2 -14 6q-21 10 -55 17q-18 3 -39 3h-1q-94 0 -132 -85q-29 -62 -31 -185v-767h-187z" />
    <glyph glyph-name="Sacute" unicode="&#x15a;" horiz-adv-x="844" 
d="M356 1602l129 263h182l-168 -263h-143zM424 -18q-205 0 -286 108q-69 89 -69 289v87h190v-83q0 -117 31 -164q36 -54 132 -54q89 0 129 59q35 50 35 147v11q0 97 -29 156q-29 57 -105 105l-145 90q-132 83 -181 175q-45 83 -45 238v24q0 370 349 370q176 0 262 -98
q81 -94 81 -277v-109h-190l-1 128q-2 79 -36 123q-40 50 -118 50q-83 0 -123 -58q-35 -50 -33 -142l2 -32q2 -69 36.5 -126.5t97.5 -94.5l135 -78q125 -73 180 -177q49 -93 54 -239v-39q0 -191 -83 -287q-88 -102 -270 -102z" />
    <glyph glyph-name="sacute" unicode="&#x15b;" horiz-adv-x="780" 
d="M309 1283l129 263h182l-168 -263h-143zM385 -18q-185 0 -266 109q-70 92 -70 282h187q0 -95 30 -146q38 -65 117 -65q72 0 107.5 40.5t35.5 110.5q0 78 -72 140q-31 25 -75 52q-113 65 -171 106q-89 62 -127 153q-20 49 -20 112q0 170 76 256q79 90 253 90q162 0 238 -80
q85 -90 85 -290l-188 1q0 85 -27 132q-33 57 -108 57q-67 0 -104 -44q-36 -40 -36 -101q0 -71 74 -132q32 -28 76 -52q128 -75 173 -107q91 -66 129 -157q20 -51 20 -114q0 -166 -77 -256q-83 -97 -260 -97z" />
    <glyph glyph-name="Scircumflex" unicode="&#x15c;" horiz-adv-x="844" 
d="M210 1602l137 236h181l138 -236h-160l-68 133l-68 -133h-160zM424 -18q-205 0 -286 108q-69 89 -69 289v87h190v-83q0 -117 31 -164q36 -54 132 -54q89 0 129 59q35 50 35 147v11q0 97 -29 156q-29 57 -105 105l-145 90q-132 83 -181 175q-45 83 -45 238v24
q0 370 349 370q176 0 262 -98q81 -94 81 -277v-109h-190l-1 128q-2 79 -36 123q-40 50 -118 50q-83 0 -123 -58q-35 -50 -33 -142l2 -32q2 -69 36.5 -126.5t97.5 -94.5l135 -78q125 -73 180 -177q49 -93 54 -239v-39q0 -191 -83 -287q-88 -102 -270 -102z" />
    <glyph glyph-name="scircumflex" unicode="&#x15d;" horiz-adv-x="780" 
d="M158 1283l137 236h181l138 -236h-160l-68 133l-68 -133h-160zM385 -18q-185 0 -266 109q-70 92 -70 282h187q0 -95 30 -146q38 -65 117 -65q72 0 107.5 40.5t35.5 110.5q0 78 -72 140q-31 25 -75 52q-113 65 -171 106q-89 62 -127 153q-20 49 -20 112q0 170 76 256
q79 90 253 90q162 0 238 -80q85 -90 85 -290l-188 1q0 85 -27 132q-33 57 -108 57q-67 0 -104 -44q-36 -40 -36 -101q0 -71 74 -132q32 -28 76 -52q128 -75 173 -107q91 -66 129 -157q20 -51 20 -114q0 -166 -77 -256q-83 -97 -260 -97z" />
    <glyph glyph-name="Scedilla" unicode="&#x15e;" horiz-adv-x="844" 
d="M444 -374q-117 0 -179 69l32 73q35 -23 59 -32q34 -13 83 -13q40 0 63.5 16.5t23.5 47.5q0 27 -30 40q-27 12 -66 12q-28 0 -48 -6v150q-180 11 -252 117q-61 90 -61 279v87h190v-83q0 -117 31 -164q36 -54 132 -54q89 0 129 59q35 50 35 147v11q0 97 -29 156
q-29 57 -105 105l-145 90q-132 83 -181 175q-45 83 -45 238v24q0 370 349 370q176 0 262 -98q81 -94 81 -277v-109h-190l-1 128q-2 79 -36 123q-40 50 -118 50q-83 0 -123 -58q-35 -50 -33 -142l2 -32q2 -69 36.5 -126.5t97.5 -94.5l135 -78q125 -73 180 -177
q49 -93 54 -239v-39q0 -356 -293 -386v-56l15 3q27 3 36 3q55 0 95 -40q38 -40 38 -101q0 -82 -64 -127q-59 -41 -160 -41z" />
    <glyph glyph-name="scedilla" unicode="&#x15f;" horiz-adv-x="780" 
d="M388 -374q-117 0 -179 69l32 73q35 -23 59 -32q34 -13 83 -13q40 0 63.5 16.5t23.5 47.5q0 27 -30 40q-27 12 -66 12q-28 0 -48 -6v152q-152 15 -219 122q-58 92 -58 266h187q0 -95 30 -146q38 -65 117 -65q72 0 107.5 40.5t35.5 110.5q0 78 -72 140q-31 25 -75 52
q-113 65 -171 106q-89 62 -127 153q-20 49 -20 112q0 170 76 256q79 90 253 90q162 0 238 -80q85 -90 85 -290l-188 1q0 85 -27 132q-33 57 -108 57q-67 0 -104 -44q-36 -40 -36 -101q0 -71 74 -132q32 -28 76 -52q128 -75 173 -107q91 -66 129 -157q20 -51 20 -114
q0 -158 -67 -244q-75 -95 -227 -107v-55l15 3q27 3 36 3q55 0 95 -40q38 -40 38 -101q0 -82 -64 -127q-59 -41 -160 -41z" />
    <glyph glyph-name="Scaron" unicode="&#x160;" horiz-adv-x="844" 
d="M347 1602l-138 236h160l68 -133l69 133h159l-137 -236h-181zM424 -18q-205 0 -286 108q-69 89 -69 289v87h190v-83q0 -117 31 -164q36 -54 132 -54q89 0 129 59q35 50 35 147v11q0 97 -29 156q-29 57 -105 105l-145 90q-132 83 -181 175q-45 83 -45 238v24q0 370 349 370
q176 0 262 -98q81 -94 81 -277v-109h-190l-1 128q-2 79 -36 123q-40 50 -118 50q-83 0 -123 -58q-35 -50 -33 -142l2 -32q2 -69 36.5 -126.5t97.5 -94.5l135 -78q125 -73 180 -177q49 -93 54 -239v-39q0 -191 -83 -287q-88 -102 -270 -102z" />
    <glyph glyph-name="scaron" unicode="&#x161;" horiz-adv-x="780" 
d="M296 1283l-138 236h160l68 -133l69 133h159l-137 -236h-181zM385 -18q-185 0 -266 109q-70 92 -70 282h187q0 -95 30 -146q38 -65 117 -65q72 0 107.5 40.5t35.5 110.5q0 78 -72 140q-31 25 -75 52q-113 65 -171 106q-89 62 -127 153q-20 49 -20 112q0 170 76 256
q79 90 253 90q162 0 238 -80q85 -90 85 -290l-188 1q0 85 -27 132q-33 57 -108 57q-67 0 -104 -44q-36 -40 -36 -101q0 -71 74 -132q32 -28 76 -52q128 -75 173 -107q91 -66 129 -157q20 -51 20 -114q0 -166 -77 -256q-83 -97 -260 -97z" />
    <glyph glyph-name="uni0162" unicode="&#x162;" horiz-adv-x="738" 
d="M272 0v1336h-261v184h714v-184h-261v-1336h-192zM383 -409l-74 41q27 43 37 68t15 65q-93 0 -93 88q0 47 23.5 68.5t73.5 21.5q101 0 101 -109q0 -83 -27 -149q-21 -52 -56 -94z" />
    <glyph glyph-name="uni0163" unicode="&#x163;" horiz-adv-x="640" 
d="M427 -19q-166 0 -226 107q-48 85 -48 292v649h-123v174h123v388h189v-388h220v-174h-220v-649q0 -132 17 -172q21 -50 93 -50q82 0 152 39l14 -157q-85 -59 -191 -59zM418 -409l-74 41q27 43 37 68t15 65q-93 0 -93 88q0 47 23.5 68.5t73.5 21.5q101 0 101 -109
q0 -83 -27 -149q-21 -52 -56 -94z" />
    <glyph glyph-name="Tcaron" unicode="&#x164;" horiz-adv-x="738" 
d="M277 1602l-138 236h160l68 -133l69 133h159l-137 -236h-181zM272 0v1336h-261v184h714v-184h-261v-1336h-192z" />
    <glyph glyph-name="tcaron" unicode="&#x165;" horiz-adv-x="640" 
d="M158 1655l-138 236h160l68 -133l69 133h159l-137 -236h-181zM427 -19q-166 0 -226 107q-48 85 -48 292v649h-123v174h123v388h189v-388h220v-174h-220v-649q0 -132 17 -172q21 -50 93 -50q82 0 152 39l14 -157q-85 -59 -191 -59z" />
    <glyph glyph-name="Tbar" unicode="&#x166;" horiz-adv-x="738" 
d="M272 0v686h-128v146h128v504h-261v184h714v-184h-261v-504h127v-146h-127v-686h-192z" />
    <glyph glyph-name="tbar" unicode="&#x167;" horiz-adv-x="640" 
d="M427 -19q-166 0 -226 107q-48 85 -48 292v220h-109v146h109v283h-123v174h123v388h189v-388h220v-174h-220v-283h149v-146h-149v-220q0 -132 17 -172q21 -50 93 -50q82 0 152 39l14 -157q-85 -59 -191 -59z" />
    <glyph glyph-name="Utilde" unicode="&#x168;" horiz-adv-x="918" 
d="M562 1641q-47 0 -109 34q-64 34 -91 34q-57 0 -91 -67l-94 39q27 79 70 123q46 48 114 48q44 0 112 -34q4 -2 15.5 -8t16 -8.5t14 -7t15.5 -6.5t14.5 -3.5t15.5 -1.5q51 0 85 67l95 -37q-25 -79 -67 -123q-47 -49 -115 -49zM460 -18q-204 0 -285 109q-67 89 -67 282v1147
h190v-1142q0 -112 24 -154q33 -59 138 -59q106 0 139 59q24 42 24 154v1142h190v-1147q0 -193 -66 -282q-82 -109 -287 -109z" />
    <glyph glyph-name="utilde" unicode="&#x169;" horiz-adv-x="912" 
d="M551 1322q-47 0 -109 34q-64 34 -91 34q-57 0 -91 -67l-94 39q27 79 70 123q46 48 114 48q44 0 112 -34q4 -2 15.5 -8t16 -8.5t14 -7t15.5 -6.5t14.5 -3.5t15.5 -1.5q51 0 85 67l95 -37q-25 -79 -67 -123q-47 -49 -115 -49zM414 -18q-185 0 -253 137q-48 97 -48 304v779
h187v-782q0 -128 21 -178q31 -81 133 -81q96 0 130 94q22 61 22 198v749h187v-1202h-187v126q-26 -70 -68 -104q-51 -40 -124 -40z" />
    <glyph glyph-name="Umacron" unicode="&#x16a;" horiz-adv-x="918" 
d="M237 1680v146h447v-146h-447zM460 -18q-204 0 -285 109q-67 89 -67 282v1147h190v-1142q0 -112 24 -154q33 -59 138 -59q106 0 139 59q24 42 24 154v1142h190v-1147q0 -193 -66 -282q-82 -109 -287 -109z" />
    <glyph glyph-name="umacron" unicode="&#x16b;" horiz-adv-x="912" 
d="M226 1361v146h447v-146h-447zM414 -18q-185 0 -253 137q-48 97 -48 304v779h187v-782q0 -128 21 -178q31 -81 133 -81q96 0 130 94q22 61 22 198v749h187v-1202h-187v126q-26 -70 -68 -104q-51 -40 -124 -40z" />
    <glyph glyph-name="Ubreve" unicode="&#x16c;" horiz-adv-x="918" 
d="M458 1602q-133 0 -199 71q-60 65 -62 174h113q7 -67 35 -97q34 -37 113 -37q76 0 111 35q30 30 36 99h114q-5 -113 -64 -175q-67 -70 -197 -70zM460 -18q-204 0 -285 109q-67 89 -67 282v1147h190v-1142q0 -112 24 -154q33 -59 138 -59q106 0 139 59q24 42 24 154v1142
h190v-1147q0 -193 -66 -282q-82 -109 -287 -109z" />
    <glyph glyph-name="ubreve" unicode="&#x16d;" horiz-adv-x="912" 
d="M450 1283q-133 0 -199 71q-60 65 -62 174h113q7 -67 35 -97q34 -37 113 -37q76 0 111 35q30 30 36 99h114q-5 -113 -64 -175q-67 -70 -197 -70zM414 -18q-185 0 -253 137q-48 97 -48 304v779h187v-782q0 -128 21 -178q31 -81 133 -81q96 0 130 94q22 61 22 198v749h187
v-1202h-187v126q-26 -70 -68 -104q-51 -40 -124 -40z" />
    <glyph glyph-name="Uring" unicode="&#x16e;" horiz-adv-x="918" 
d="M457 1602q-184 0 -184 175q0 92 44.5 136.5t139.5 44.5q103 0 147 -44t44 -137q0 -88 -44.5 -131.5t-146.5 -43.5zM459 1718q64 0 64 61q0 31 -14.5 46t-49.5 15q-61 0 -61 -61t61 -61zM460 -18q-204 0 -285 109q-67 89 -67 282v1147h190v-1142q0 -112 24 -154
q33 -59 138 -59q106 0 139 59q24 42 24 154v1142h190v-1147q0 -193 -66 -282q-82 -109 -287 -109z" />
    <glyph glyph-name="uring" unicode="&#x16f;" horiz-adv-x="912" 
d="M445 1283q-184 0 -184 175q0 92 44.5 136.5t139.5 44.5q103 0 147 -44.5t44 -136.5q0 -88 -44.5 -131.5t-146.5 -43.5zM447 1399q64 0 64 61q0 31 -14.5 46t-49.5 15q-61 0 -61 -61t61 -61zM414 -18q-185 0 -253 137q-48 97 -48 304v779h187v-782q0 -128 21 -178
q31 -81 133 -81q96 0 130 94q22 61 22 198v749h187v-1202h-187v126q-26 -70 -68 -104q-51 -40 -124 -40z" />
    <glyph glyph-name="Uhungarumlaut" unicode="&#x170;" horiz-adv-x="918" 
d="M266 1602l129 263h173l-164 -263h-138zM499 1602l129 263h173l-164 -263h-138zM460 -18q-204 0 -285 109q-67 89 -67 282v1147h190v-1142q0 -112 24 -154q33 -59 138 -59q106 0 139 59q24 42 24 154v1142h190v-1147q0 -193 -66 -282q-82 -109 -287 -109z" />
    <glyph glyph-name="uhungarumlaut" unicode="&#x171;" horiz-adv-x="912" 
d="M263 1283l129 263h173l-164 -263h-138zM496 1283l129 263h173l-164 -263h-138zM414 -18q-185 0 -253 137q-48 97 -48 304v779h187v-782q0 -128 21 -178q31 -81 133 -81q96 0 130 94q22 61 22 198v749h187v-1202h-187v126q-26 -70 -68 -104q-51 -40 -124 -40z" />
    <glyph glyph-name="Uogonek" unicode="&#x172;" horiz-adv-x="918" 
d="M582 -397q-91 0 -148 48q-65 54 -65 161q0 104 79 171q-197 1 -276 111q-64 89 -64 279v1147h190v-1142q0 -112 24 -154q33 -59 138 -59q106 0 139 59q24 42 24 154v1142h190v-1147q0 -138 -30 -216q-39 -98 -125 -138h1q-62 -39 -92 -83t-30 -109q0 -93 81 -93
q54 0 89 22l12 -109q-44 -44 -137 -44z" />
    <glyph glyph-name="uogonek" unicode="&#x173;" horiz-adv-x="912" 
d="M712 -416q-91 0 -148 48q-65 54 -65 161q0 74 38 126q30 41 94 81h-25v126q-26 -70 -68 -104q-51 -40 -124 -40q-185 0 -253 137q-48 97 -48 304v779h187v-782q0 -128 21 -178q31 -81 133 -81q96 0 130 94q22 61 22 198v749h187v-1202h-4q-62 -39 -92 -83t-30 -109
q0 -93 81 -93q54 0 89 22l12 -109q-44 -44 -137 -44z" />
    <glyph glyph-name="Wcircumflex" unicode="&#x174;" horiz-adv-x="1324" 
d="M435 1602l137 236h181l138 -236h-160l-68 133l-68 -133h-160zM242 0l-210 1521h193l150 -1280l159 1280h251l159 -1280l150 1280h193l-209 -1521h-257l-162 1259l-161 -1259h-256z" />
    <glyph glyph-name="wcircumflex" unicode="&#x175;" horiz-adv-x="1274" 
d="M382 1283l137 236h181l138 -236h-160l-68 133l-68 -133h-160zM202 0l-183 1203h193l138 -1024h12l138 1024h280l138 -1024h12l138 1024h193l-183 -1203h-298l-140 1022h-1l-139 -1022h-298z" />
    <glyph glyph-name="Ycircumflex" unicode="&#x176;" horiz-adv-x="803" 
d="M179 1602l137 236h181l138 -236h-160l-68 133l-68 -133h-160zM309 0v576l-306 944h209l195 -677l203 677h191l-302 -944v-576h-190z" />
    <glyph glyph-name="ycircumflex" unicode="&#x177;" horiz-adv-x="764" 
d="M158 1283l137 236h181l138 -236h-160l-68 133l-68 -133h-160zM265 -425l-83 130q62 33 103 94q45 69 66 177l4 24h-122l-224 1203h193l175 -1038h9l25 137q13 81 39 232t37 219q9 55 35.5 210t40.5 240h193q-14 -79 -41.5 -224.5t-34.5 -184.5q-11 -59 -36.5 -197.5
t-39.5 -212.5l-74 -401q-62 -315 -265 -408z" />
    <glyph glyph-name="Ydieresis" unicode="&#x178;" horiz-adv-x="803" 
d="M287 1637q-92 0 -92 96q0 51 22 75t70 24q52 0 74.5 -23.5t22.5 -75.5q0 -49 -22.5 -72.5t-74.5 -23.5zM524 1637q-93 0 -93 96q0 51 22.5 75t70.5 24q52 0 74 -23.5t22 -75.5q0 -49 -22 -72.5t-74 -23.5zM309 0v576l-306 944h209l195 -677l203 677h191l-302 -944v-576
h-190z" />
    <glyph glyph-name="Zacute" unicode="&#x179;" horiz-adv-x="760" 
d="M327 1602l129 263h182l-168 -263h-143zM52 0v171l445 1165h-423v184h638v-161l-451 -1176h450v-183h-659z" />
    <glyph glyph-name="zacute" unicode="&#x17a;" horiz-adv-x="733" 
d="M295 1283l129 263h182l-168 -263h-143zM44 0v160l426 869h-397v173h604v-159l-424 -865h422v-178h-631z" />
    <glyph glyph-name="Zdotaccent" unicode="&#x17b;" horiz-adv-x="760" 
d="M396 1618q-59 0 -86.5 26.5t-27.5 80.5q0 57 27.5 84t86.5 27q63 0 90.5 -26.5t27.5 -84.5q0 -55 -27.5 -81t-90.5 -26zM52 0v171l445 1165h-423v184h638v-161l-451 -1176h450v-183h-659z" />
    <glyph glyph-name="zdotaccent" unicode="&#x17c;" horiz-adv-x="733" 
d="M360 1299q-59 0 -86.5 26.5t-27.5 80.5q0 57 27.5 84t86.5 27q63 0 90.5 -26.5t27.5 -84.5q0 -55 -27.5 -81t-90.5 -26zM44 0v160l426 869h-397v173h604v-159l-424 -865h422v-178h-631z" />
    <glyph glyph-name="Zcaron" unicode="&#x17d;" horiz-adv-x="760" 
d="M308 1602l-138 236h160l68 -133l69 133h159l-137 -236h-181zM52 0v171l445 1165h-423v184h638v-161l-451 -1176h450v-183h-659z" />
    <glyph glyph-name="zcaron" unicode="&#x17e;" horiz-adv-x="733" 
d="M280 1283l-138 236h160l68 -133l69 133h159l-137 -236h-181zM44 0v160l426 869h-397v173h604v-159l-424 -865h422v-178h-631z" />
    <glyph glyph-name="longs" unicode="&#x17f;" horiz-adv-x="543" 
d="M140 0v1029h-124v174h124v8q0 209 47 292q61 107 227 107q76 0 161 -39l-33 -156q-51 18 -103 18q-72 0 -93 -50q-18 -39 -18 -172v-1211h-188z" />
    <glyph glyph-name="AEacute" unicode="&#x1fc;" horiz-adv-x="1064" 
d="M573 1602l129 263h182l-168 -263h-143zM-16 0l407 1520l637 1v-184l-327 -1v-467h258v-184h-258v-502h327v-183h-517v307h-260l-77 -307h-190zM295 481h216v859z" />
    <glyph glyph-name="aeacute" unicode="&#x1fd;" horiz-adv-x="1393" 
d="M608 1283l129 263h182l-168 -263h-143zM421 -19q-182 0 -260 111q-65 90 -65 265q0 167 51 240q68 95 251 95q111 0 199 -32v122q0 129 -22 182q-33 78 -131 78q-90 0 -124 -70q-24 -49 -24 -145v-20h-187v18q0 176 60 271q79 126 274 126q174 0 250 -97q76 97 246 97
q204 0 284 -127q57 -93 57 -280v-225l-496 -88v-80q0 -129 21 -179q33 -81 134 -81q98 0 132 67q23 46 23 154v23h186v-22q0 -188 -57 -279q-79 -123 -282 -123q-185 0 -259 113q-44 -52 -111.5 -83t-149.5 -31zM784 665l310 59v93q0 109 -21 154q-33 71 -134 71
q-99 0 -131 -78q-24 -55 -24 -183v-116zM444 161q88 0 127 78q30 60 30 167v91q-57 38 -160 38q-97 0 -130 -58q-23 -40 -23 -123q0 -92 30 -136q37 -57 126 -57z" />
    <glyph glyph-name="Oslashacute" unicode="&#x1fe;" horiz-adv-x="883" 
d="M311 1602l129 263h182l-168 -263h-143zM298 -115l-176 35l46 173q-45 57 -64 148q-16 75 -16 179v681q0 204 65 305q84 134 288 134v-1l1 1q59 0 113 -13l33 118l171 -46l-45 -169q46 -58 66 -149q16 -75 16 -180v-680q0 -202 -65 -305q-84 -134 -289 -134l-1 1v-1
q-60 0 -114 13zM441 165h1q99 0 136 77q27 55 27 180v678q0 123 -25 178q-37 78 -138 78q-4 0 -5 1q-96 -1 -131 -77q-27 -59 -27 -180v-679q0 -124 25 -177q36 -79 137 -79z" />
    <glyph glyph-name="oslashacute" unicode="&#x1ff;" horiz-adv-x="852" 
d="M342 1341l129 263h182l-168 -263h-143zM172 -84l-141 4l99 225q-44 95 -44 278v356q0 132 22 216q28 108 98 163q82 64 221 64q96 0 164 -30l59 132l139 -4l-93 -212q44 -65 59 -150q13 -73 13 -178v-356q0 -207 -57 -306q-80 -136 -282 -136q-125 0 -206 51zM274 471
l241 548q-32 23 -88 23q-99 0 -131 -78q-22 -53 -22 -182v-311zM427 162q99 0 131 78q22 53 22 182v361v30q0 20 -1 30l-274 -623q37 -58 122 -58z" />
    <glyph glyph-name="Scommaaccent" unicode="&#x218;" horiz-adv-x="844" 
d="M424 -18q-205 0 -286 108q-69 89 -69 289v87h190v-83q0 -117 31 -164q36 -54 132 -54q89 0 129 59q35 50 35 147v11q0 97 -29 156q-29 57 -105 105l-145 90q-132 83 -181 175q-45 83 -45 238v24q0 370 349 370q176 0 262 -98q81 -94 81 -277v-109h-190l-1 128
q-2 79 -36 123q-40 50 -118 50q-83 0 -123 -58q-35 -50 -33 -142l2 -32q2 -69 36.5 -126.5t97.5 -94.5l135 -78q125 -73 180 -177q49 -93 54 -239v-39q0 -191 -83 -287q-88 -102 -270 -102zM480 -419l-74 41q27 43 37 68t15 65q-93 0 -93 88q0 47 23.5 68.5t73.5 21.5
q101 0 101 -109q0 -83 -27 -149q-21 -52 -56 -94z" />
    <glyph glyph-name="scommaaccent" unicode="&#x219;" horiz-adv-x="780" 
d="M385 -18q-185 0 -266 109q-70 92 -70 282h187q0 -95 30 -146q38 -65 117 -65q72 0 107.5 40.5t35.5 110.5q0 78 -72 140q-31 25 -75 52q-113 65 -171 106q-89 62 -127 153q-20 49 -20 112q0 170 76 256q79 90 253 90q162 0 238 -80q85 -90 85 -290l-188 1q0 85 -27 132
q-33 57 -108 57q-67 0 -104 -44q-36 -40 -36 -101q0 -71 74 -132q32 -28 76 -52q128 -75 173 -107q91 -66 129 -157q20 -51 20 -114q0 -166 -77 -256q-83 -97 -260 -97zM402 -409l-74 41q27 43 37 68t15 65q-93 0 -93 88q0 47 23.5 68.5t73.5 21.5q101 0 101 -109
q0 -83 -27 -149q-21 -52 -56 -94z" />
    <glyph glyph-name="uni021A" unicode="&#x21a;" horiz-adv-x="738" 
d="M272 0v1336h-261v184h714v-184h-261v-1336h-192zM382 -409l-74 41q27 43 37 68t15 65q-93 0 -93 88q0 47 23.5 68.5t73.5 21.5q101 0 101 -109q0 -83 -27 -149q-21 -52 -56 -94z" />
    <glyph glyph-name="uni021B" unicode="&#x21b;" horiz-adv-x="640" 
d="M427 -19q-166 0 -226 107q-48 85 -48 292v649h-123v174h123v388h189v-388h220v-174h-220v-649q0 -132 17 -172q21 -50 93 -50q82 0 152 39l14 -157q-85 -59 -191 -59zM336 -409l-74 41q27 43 37 68t15 65q-93 0 -93 88q0 47 23.5 68.5t73.5 21.5q101 0 101 -109
q0 -83 -27 -149q-21 -52 -56 -94z" />
    <glyph glyph-name="uni0237" unicode="&#x237;" horiz-adv-x="241" 
d="M38 -408q-106 0 -191 59l14 157q70 -39 152 -39q71 0 94 50q17 40 17 172v1211h188v-1211q0 -209 -47 -292q-60 -107 -227 -107z" />
    <glyph glyph-name="circumflex" unicode="&#x2c6;" horiz-adv-x="533" 
d="M43 1283l137 236h181l138 -236h-160l-68 133l-68 -133h-160z" />
    <glyph glyph-name="caron" unicode="&#x2c7;" horiz-adv-x="681" 
d="M248 1283l-138 236h160l68 -133l69 133h159l-137 -236h-181z" />
    <glyph glyph-name="breve" unicode="&#x2d8;" horiz-adv-x="683" 
d="M327 1283q-133 0 -199 71q-60 65 -62 174h113q7 -67 35 -97q34 -37 113 -37q76 0 111 35q30 30 36 99h114q-5 -113 -64 -175q-67 -70 -197 -70z" />
    <glyph glyph-name="dotaccent" unicode="&#x2d9;" horiz-adv-x="499" 
d="M203 1299q-59 0 -86.5 26.5t-27.5 80.5q0 57 27.5 84t86.5 27q63 0 90.5 -26.5t27.5 -84.5q0 -55 -27.5 -81t-90.5 -26z" />
    <glyph glyph-name="ring" unicode="&#x2da;" horiz-adv-x="401" 
d="M193 1283q-184 0 -184 175q0 92 44.5 136.5t139.5 44.5q103 0 147 -44.5t44 -136.5q0 -88 -44.5 -131.5t-146.5 -43.5zM195 1399q64 0 64 61q0 31 -14.5 46t-49.5 15q-61 0 -61 -61t61 -61z" />
    <glyph glyph-name="ogonek" unicode="&#x2db;" horiz-adv-x="528" 
d="M260 -416q-91 0 -148 48q-65 54 -65 161q0 95 64 157q46 44 144 89l82 -39q-62 -39 -92 -83t-30 -109q0 -93 81 -93q54 0 89 22l12 -109q-44 -44 -137 -44z" />
    <glyph glyph-name="tilde" unicode="&#x2dc;" horiz-adv-x="537" 
d="M362 1322q-47 0 -109 34q-64 34 -91 34q-57 0 -91 -67l-94 39q27 79 70 123q46 48 114 48q44 0 112 -34q4 -2 15.5 -8t16 -8.5t14 -7t15.5 -6.5t14.5 -3.5t15.5 -1.5q51 0 85 67l95 -37q-25 -79 -67 -123q-47 -49 -115 -49z" />
    <glyph glyph-name="hungarumlaut" unicode="&#x2dd;" horiz-adv-x="416" 
d="M-53 1283l129 263h173l-164 -263h-138zM180 1283l129 263h173l-164 -263h-138z" />
    <glyph glyph-name="tonos" unicode="&#x384;" horiz-adv-x="549" 
d="M378 1283l-17 263h168l-22 -263h-129z" />
    <glyph glyph-name="dieresistonos" unicode="&#x385;" horiz-adv-x="513" 
d="M225 1401l-17 263h163l-23 -263h-123zM94 1318q-93 0 -93 96q0 51 22.5 75t70.5 24q52 0 74 -23.5t22 -75.5q0 -49 -22 -72.5t-74 -23.5zM472 1318q-93 0 -93 96q0 51 22.5 75t70.5 24q52 0 74 -23.5t22 -75.5q0 -49 -22 -72.5t-74 -23.5z" />
    <glyph glyph-name="Alphatonos" unicode="&#x386;" horiz-adv-x="852" 
d="M7 0l275 1521h266l275 -1521h-193l-49 307h-331l-49 -307h-194zM43 1258l-17 263h168l-22 -263h-129zM278 481h275l-138 855z" />
    <glyph glyph-name="Epsilontonos" unicode="&#x388;" horiz-adv-x="795" 
d="M-89 1259l-17 263h168l-22 -263h-129zM122 0v1520l613 1v-184l-422 -1v-467h353v-184h-353v-502h422v-183h-613z" />
    <glyph glyph-name="Etatonos" unicode="&#x389;" horiz-adv-x="968" 
d="M127 0v1521h191v-662h333v662h191v-1521h-191v674h-333v-674h-191zM-81 1256l-17 263h168l-22 -263h-129z" />
    <glyph glyph-name="Iotatonos" unicode="&#x38a;" horiz-adv-x="557" 
d="M5 1258l-17 263h168l-22 -263h-129zM239 0v1521h191v-1521h-191z" />
    <glyph glyph-name="Omicrontonos" unicode="&#x38c;" 
d="M-66 1295l-17 263h168l-22 -263h-129zM439 -18q-205 0 -290 136q-63 101 -63 302v681q0 204 65 305q84 134 288 134v-1l1 1q206 0 290 -135q64 -103 64 -304v-680q0 -202 -65 -305q-84 -134 -289 -134l-1 1v-1zM439 165h1q99 0 136 77q27 55 27 180v678q0 123 -25 178
q-37 78 -138 78q-4 0 -5 1q-96 -1 -131 -77q-27 -59 -27 -180v-679q0 -124 25 -177q36 -79 137 -79z" />
    <glyph glyph-name="Upsilontonos" unicode="&#x38e;" horiz-adv-x="1066" 
d="M19 1282l-17 263h168l-22 -263h-129zM546 0v576l-306 944h209l195 -677l203 677h191l-302 -944v-576h-190z" />
    <glyph glyph-name="Omegatonos" unicode="&#x38f;" horiz-adv-x="919" 
d="M-67 1283l-17 263h168l-22 -263h-129zM121 0v182h137l-3 143q-96 49 -128 178q-21 80 -21 252v346q0 202 65 305q84 134 289 134q142 0 227 -64q70 -54 103 -162q24 -82 24 -213v-345q0 -170 -22 -254q-34 -129 -128 -177l-2 -143h137v-182h-298v474q76 0 104 65
q18 45 18 151v410q0 126 -24 178q-37 78 -139 78q-4 0 -5 1q-95 -1 -131 -78q-27 -58 -27 -179v-344v-40q-1 -14 -1 -41q0 -96 20 -140q28 -61 104 -61v-474h-299z" />
    <glyph glyph-name="iotadieresistonos" unicode="&#x390;" horiz-adv-x="425" 
d="M151 1385l-17 263h163l-23 -263h-123zM20 1302q-93 0 -93 96q0 51 22.5 75t70.5 24q52 0 74 -23.5t22 -75.5q0 -49 -22 -72.5t-74 -23.5zM398 1302q-93 0 -93 96q0 51 22.5 75t70.5 24q52 0 74 -23.5t22 -75.5q0 -49 -22 -72.5t-74 -23.5zM120 0v1202h187v-1202h-187z
" />
    <glyph glyph-name="Alpha" unicode="&#x391;" horiz-adv-x="852" 
d="M7 0l275 1521h266l275 -1521h-193l-49 307h-331l-49 -307h-194zM278 481h275l-138 855z" />
    <glyph glyph-name="Beta" unicode="&#x392;" horiz-adv-x="915" 
d="M127 1v1520h341q338 0 338 -342v-92q0 -121 -35.5 -192.5t-115.5 -94.5q78 -18 125 -92q46 -74 46 -184v-134q0 -210 -84 -300q-83 -89 -270 -89h-345zM317 880h130q92 0 131 46.5t38 144.5l-1 94q0 83 -34 128q-39 52 -118 52h-146v-465zM317 184h154q86 0 122 36
q43 45 42 167v137q0 78 -43 129q-45 53 -123 53h-152v-522z" />
    <glyph glyph-name="Gamma" unicode="&#x393;" horiz-adv-x="728" 
d="M121 0v1523h607v-184h-416v-1339h-191z" />
    <glyph glyph-name="uni0394" unicode="&#x394;" horiz-adv-x="852" 
d="M11 0l265 1521h298l263 -1521h-826zM236 184h375l-186 1150z" />
    <glyph glyph-name="Epsilon" unicode="&#x395;" horiz-adv-x="795" 
d="M122 0v1520l613 1v-184l-422 -1v-467h353v-184h-353v-502h422v-183h-613z" />
    <glyph glyph-name="Zeta" unicode="&#x396;" horiz-adv-x="760" 
d="M52 0v171l445 1165h-423v184h638v-161l-451 -1176h450v-183h-659z" />
    <glyph glyph-name="Eta" unicode="&#x397;" horiz-adv-x="968" 
d="M127 0v1521h191v-662h333v662h191v-1521h-191v674h-333v-674h-191z" />
    <glyph glyph-name="Theta" unicode="&#x398;" horiz-adv-x="883" 
d="M441 -18q-205 0 -290 136q-63 101 -63 302v681q0 204 65 305q84 134 288 134v-1l1 1q206 0 290 -135q64 -103 64 -304v-680q0 -202 -65 -305q-84 -134 -289 -134l-1 1v-1zM441 165h1q99 0 136 77q27 55 27 180v678q0 123 -25 178q-37 78 -138 78q-4 0 -5 1
q-96 -1 -131 -77q-27 -59 -27 -180v-679q0 -124 25 -177q36 -79 137 -79zM335 665v184h210v-184h-210z" />
    <glyph glyph-name="Iota" unicode="&#x399;" horiz-adv-x="446" 
d="M128 0v1521h191v-1521h-191z" />
    <glyph glyph-name="Kappa" unicode="&#x39a;" horiz-adv-x="905" 
d="M126 0v1521h191v-662h107l254 661h205l-279 -746l302 -774h-205l-272 674h-112v-674h-191z" />
    <glyph glyph-name="Lambda" unicode="&#x39b;" horiz-adv-x="862" 
d="M18 0l265 1521h298l263 -1521h-196l-216 1334l-218 -1334h-196z" />
    <glyph glyph-name="Mu" unicode="&#x39c;" horiz-adv-x="1227" 
d="M128 0v1521h259l229 -1007l230 1007h258v-1521h-191l19 1236l-228 -1027h-175l-230 1031l20 -1240h-191z" />
    <glyph glyph-name="Nu" unicode="&#x39d;" horiz-adv-x="968" 
d="M127 0v1521h254l314 -1132l-6 1132h191l4 -1521h-241l-333 1147l8 -1147h-191z" />
    <glyph glyph-name="Xi" unicode="&#x39e;" horiz-adv-x="829" 
d="M106 1339v183l617 1v-183zM173 685v184h481v-184h-481zM106 0l-1 183h618v-183h-617z" />
    <glyph glyph-name="Omicron" unicode="&#x39f;" 
d="M439 -18q-205 0 -290 136q-63 101 -63 302v681q0 204 65 305q84 134 288 134v-1l1 1q206 0 290 -135q64 -103 64 -304v-680q0 -202 -65 -305q-84 -134 -289 -134l-1 1v-1zM439 165h1q99 0 136 77q27 55 27 180v678q0 123 -25 178q-37 78 -138 78q-4 0 -5 1
q-96 -1 -131 -77q-27 -59 -27 -180v-679q0 -124 25 -177q36 -79 137 -79z" />
    <glyph glyph-name="Pi" unicode="&#x3a0;" horiz-adv-x="957" 
d="M121 0v1521h716v-1521h-191v1337h-334v-1337h-191z" />
    <glyph glyph-name="Rho" unicode="&#x3a1;" horiz-adv-x="926" 
d="M121 0v1521h332q170 0 256 -80q96 -90 96 -285v-230q0 -208 -95 -294q-84 -77 -266 -77h-132v-555h-191zM312 737h130q94 0 134 43q38 42 38 146v230q0 91 -37.5 135.5t-122.5 44.5h-142v-599z" />
    <glyph glyph-name="Sigma" unicode="&#x3a3;" horiz-adv-x="796" 
d="M66 0v171l269 590l-264 589v171h644v-183h-435l254 -547v-61l-259 -547h450v-183h-659z" />
    <glyph glyph-name="Tau" unicode="&#x3a4;" horiz-adv-x="738" 
d="M272 0v1336h-261v184h714v-184h-261v-1336h-192z" />
    <glyph glyph-name="Upsilon" unicode="&#x3a5;" horiz-adv-x="803" 
d="M309 0v576l-306 944h209l195 -677l203 677h191l-302 -944v-576h-190z" />
    <glyph glyph-name="Phi" unicode="&#x3a6;" horiz-adv-x="1109" 
d="M459 0v122q-144 0 -226 63q-72 54 -103 159q-24 81 -24 211v411q0 130 25 214q31 104 104 158q83 62 224 62v121h191v-121q143 0 226 -62q71 -55 104 -160q24 -81 24 -211v-412q0 -200 -65 -302q-84 -131 -289 -131v-122h-191zM459 305v912q-99 0 -135 -74
q-27 -55 -27 -178v-409q0 -122 25 -175q36 -76 137 -76zM650 305q99 0 136 73q27 53 27 178v410q0 125 -24 175q-36 75 -139 75v-911z" />
    <glyph glyph-name="Chi" unicode="&#x3a7;" horiz-adv-x="885" 
d="M18 0l297 790l-272 731h209l193 -538l192 538h209l-279 -733l300 -788h-213l-216 594l-207 -594h-213z" />
    <glyph glyph-name="Psi" unicode="&#x3a8;" horiz-adv-x="1109" 
d="M460 0v411q-206 0 -290 134q-64 100 -64 300v677l191 -1v-675q0 -122 25 -175q36 -76 138 -76v926h191v-926q98 0 135 73q27 53 27 178v675l191 1v-677q0 -129 -25 -213q-31 -105 -103 -159q-84 -62 -225 -62v-411h-191z" />
    <glyph glyph-name="uni03A9" unicode="&#x3a9;" horiz-adv-x="919" 
d="M121 0v182h137l-3 143q-96 49 -128 178q-21 80 -21 252v346q0 202 65 305q84 134 289 134q142 0 227 -64q70 -54 103 -162q24 -82 24 -213v-345q0 -170 -22 -254q-34 -129 -128 -177l-2 -143h137v-182h-298v474q76 0 104 65q18 45 18 151v410q0 126 -24 178
q-37 78 -139 78q-4 0 -5 1q-95 -1 -131 -78q-27 -58 -27 -179v-344v-40q-1 -14 -1 -41q0 -96 20 -140q28 -61 104 -61v-474h-299z" />
    <glyph glyph-name="Iotadieresis" unicode="&#x3aa;" horiz-adv-x="446" 
d="M95 1637q-92 0 -92 96q0 51 22 75t70 24q52 0 74.5 -23.5t22.5 -75.5q0 -49 -22.5 -72.5t-74.5 -23.5zM332 1637q-93 0 -93 96q0 51 22.5 75t70.5 24q52 0 74 -23.5t22 -75.5q0 -49 -22 -72.5t-74 -23.5zM128 0v1521h191v-1521h-191z" />
    <glyph glyph-name="Upsilondieresis" unicode="&#x3ab;" horiz-adv-x="803" 
d="M286 1637q-92 0 -92 96q0 51 22 75t70 24q52 0 74.5 -23.5t22.5 -75.5q0 -49 -22.5 -72.5t-74.5 -23.5zM523 1637q-93 0 -93 96q0 51 22.5 75t70.5 24q52 0 74 -23.5t22 -75.5q0 -49 -22 -72.5t-74 -23.5zM309 0v576l-306 944h209l195 -677l203 677h191l-302 -944v-576
h-190z" />
    <glyph glyph-name="alphatonos" unicode="&#x3ac;" horiz-adv-x="890" 
d="M402 1283l-17 263h168l-22 -263h-129zM402 -19q-170 0 -242 115q-57 91 -59 272v467q2 182 59 273q71 113 239 113q143 0 195 -142v123h187v-1202h-187v123q-25 -68 -67 -102q-51 -40 -125 -40zM441 161q70 0 109 51q30 41 39 116q5 72 5 134v323q-2 71 -10 113
q-13 67 -41 100q-37 43 -102 43q-67 0 -103 -39q-29 -32 -41 -92q-8 -57 -8 -192v-235v-17q0 -55 1 -84t6.5 -68.5t17.5 -66.5q13 -38 41 -60q33 -26 86 -26z" />
    <glyph glyph-name="epsilontonos" unicode="&#x3ad;" horiz-adv-x="892" 
d="M381 1283l-17 263h168l-22 -263h-129zM448 -18q-142 0 -223 65q-70 55 -98 162q-22 84 -22 214v302v55q0 36 1 55q2 182 69 274q82 113 271 113q203 0 284 -126q57 -92 57 -271v-18h-186v20q0 102 -21 145q-34 70 -134 70q-98 0 -131 -78q-22 -53 -22 -182v-96l349 5
v-171l-349 2v-12q0 -133 4 -196q7 -68 37 -106q36 -46 112 -46q97 0 132 67q23 46 23 149v17h186v-16q0 -113 -21 -190q-27 -96 -97 -148q-80 -59 -221 -59z" />
    <glyph glyph-name="etatonos" unicode="&#x3ae;" horiz-adv-x="908" 
d="M404 1283l-17 263h168l-22 -263h-129zM613 -366v1148q0 133 -18 179q-32 80 -131 80q-93 0 -130 -95q-27 -69 -27 -199v-747h-187v1202h187v-133q28 67 84 107q62 44 138 44q121 0 185 -64q53 -54 73 -164q13 -70 13 -213v-1145h-187z" />
    <glyph glyph-name="iotatonos" unicode="&#x3af;" horiz-adv-x="425" 
d="M157 1298l-17 263h168l-22 -263h-129zM120 0v1202h187v-1202h-187z" />
    <glyph glyph-name="upsilondieresistonos" unicode="&#x3b0;" horiz-adv-x="891" 
d="M395 1385l-17 263h163l-23 -263h-123zM264 1302q-93 0 -93 96q0 51 22.5 75t70.5 24q52 0 74 -23.5t22 -75.5q0 -49 -22 -72.5t-74 -23.5zM642 1302q-93 0 -93 96q0 51 22.5 75t70.5 24q52 0 74 -23.5t22 -75.5q0 -49 -22 -72.5t-74 -23.5zM442 -18l-1 1q-194 4 -272 112
q-63 87 -63 278v829h190v-824q0 -111 22 -151q33 -61 129 -62q102 1 135 60q23 43 23 153v824h190v-829q0 -189 -63 -278q-78 -108 -274 -112v-1h-16z" />
    <glyph glyph-name="alpha" unicode="&#x3b1;" horiz-adv-x="890" 
d="M402 -19q-170 0 -242 115q-57 91 -59 272v467q2 182 59 273q71 113 239 113q143 0 195 -142v123h187v-1202h-187v123q-25 -68 -67 -102q-51 -40 -125 -40zM441 161q70 0 109 51q30 41 39 116q5 72 5 134v323q-2 71 -10 113q-13 67 -41 100q-37 43 -102 43q-67 0 -103 -39
q-29 -32 -41 -92q-8 -57 -8 -192v-235v-17q0 -55 1 -84t6.5 -68.5t17.5 -66.5q13 -38 41 -60q33 -26 86 -26z" />
    <glyph glyph-name="beta" unicode="&#x3b2;" horiz-adv-x="872" 
d="M106 -364v1519q0 192 70 284q77 101 258 101q173 0 252 -96q80 -98 80 -312q0 -161 -37 -246q-34 -76 -112 -101q91 -21 130 -105.5t39 -244.5q0 -249 -79 -351q-78 -102 -266 -102h-28v183h28q80 0 115 45q39 50 39 176v128q0 104 -50 146q-39 33 -119 33h-129v-1057
h-191zM297 872h130q71 0 107 44q41 50 41 164v63q0 112 -29 159q-34 55 -116 55q-76 0 -106 -48q-27 -43 -27 -144v-293z" />
    <glyph glyph-name="gamma" unicode="&#x3b3;" horiz-adv-x="791" 
d="M300 -370v370h-38l-244 1203h194l180 -1024h7l182 1024h193l-244 -1203h-42v-370h-188z" />
    <glyph glyph-name="delta" unicode="&#x3b4;" 
d="M429 -18q-206 0 -285 137q-58 100 -58 304v356q0 190 49 288q64 130 229 151l-163 190v160h566v-160h-336l11 -13q2 -2 7 -8t10.5 -12t10.5 -12q11 -12 87 -96q89 -99 127 -139h-5q52 -61 73 -156q16 -80 16 -192v-356q0 -207 -57 -306q-80 -136 -282 -136zM427 162
q99 0 131 78q22 53 22 182v361q0 128 -20 179q-33 80 -133 80q-99 0 -131 -78q-22 -53 -22 -182v-361q0 -128 21 -178q31 -81 132 -81z" />
    <glyph glyph-name="epsilon" unicode="&#x3b5;" horiz-adv-x="892" 
d="M448 -18q-142 0 -223 65q-70 55 -98 162q-22 84 -22 214v302v55q0 36 1 55q2 182 69 274q82 113 271 113q203 0 284 -126q57 -92 57 -271v-18h-186v20q0 102 -21 145q-34 70 -134 70q-98 0 -131 -78q-22 -53 -22 -182v-96l349 5v-171l-349 2v-12q0 -133 4 -196
q7 -68 37 -106q36 -46 112 -46q97 0 132 67q23 46 23 149v17h186v-16q0 -113 -21 -190q-27 -96 -97 -148q-80 -59 -221 -59z" />
    <glyph glyph-name="zeta" unicode="&#x3b6;" horiz-adv-x="706" 
d="M512 -366l14 133q7 54 7 82q0 69 -31 99q-37 34 -122 35q-1 0 -1 1h-2q-157 13 -245 96q-85 79 -85 200q0 84 40 171l257 563h-326v188h520v-188l-259 -571q-28 -60 -28 -118q0 -74 47 -119.5t133 -47.5q1 0 2 -1q2 -1 3 -1q158 -17 226 -90q60 -64 60 -187
q0 -40 -9 -112l-15 -133h-186z" />
    <glyph glyph-name="eta" unicode="&#x3b7;" horiz-adv-x="908" 
d="M613 -366v1148q0 133 -18 179q-32 80 -131 80q-93 0 -130 -95q-27 -69 -27 -199v-747h-187v1202h187v-133q28 67 84 107q62 44 138 44q121 0 185 -64q53 -54 73 -164q13 -70 13 -213v-1145h-187z" />
    <glyph glyph-name="theta" unicode="&#x3b8;" 
d="M424 -18q-143 0 -222 63q-69 54 -95 158q-21 79 -21 211v692q0 131 22 214q26 103 96 158q79 62 220 62q143 0 222 -62q67 -53 95 -160q20 -80 20 -211v-692q0 -207 -56 -302q-79 -131 -281 -131zM277 849h294v257q0 130 -18 175q-31 76 -129 76q-97 0 -127 -73
q-20 -48 -20 -179v-256zM424 165q96 0 127 73q20 47 20 178v249h-294v-250q0 -130 18 -174q31 -76 129 -76z" />
    <glyph glyph-name="iota" unicode="&#x3b9;" horiz-adv-x="425" 
d="M120 0v1202h187v-1202h-187z" />
    <glyph glyph-name="kappa" unicode="&#x3ba;" horiz-adv-x="867" 
d="M121 0v1201h187v-506h98l215 507h192l-268 -601l303 -601h-208l-236 512h-96v-512h-187z" />
    <glyph glyph-name="lambda" unicode="&#x3bb;" horiz-adv-x="792" 
d="M19 0l224 1203h132v1q-15 94 -63 155q-40 50 -97 79l83 130q92 -40 158 -127q72 -98 93 -228l4 -29l221 -1184h-193l-152 903h-8l-19 121h-17l-173 -1024h-193z" />
    <glyph glyph-name="uni03BC" unicode="&#x3bc;" horiz-adv-x="920" 
d="M132 -365v1567h187v-750q0 -132 25 -197q34 -94 128 -94q100 0 133 81q20 51 20 178v782h188v-779q0 -206 -47 -304q-68 -137 -249 -137q-149 0 -198 145v-492h-187z" />
    <glyph glyph-name="nu" unicode="&#x3bd;" horiz-adv-x="773" 
d="M252 0l-244 1203h194l180 -1024h7l182 1024h193l-244 -1203h-268z" />
    <glyph glyph-name="xi" unicode="&#x3be;" horiz-adv-x="935" 
d="M564 -366l14 133q9 70 9 98q0 60 -29 88q-32 29 -113 29h-4q-189 0 -266 99q-79 102 -79 351q0 158 42 243.5t135 106.5q-74 24 -111.5 93t-37.5 174v52q0 127 23 215q28 105 100 161q80 63 222 63q140 0 224 -63q69 -54 99 -157q22 -76 22 -199v-31h-191v30
q0 111 -24 164q-35 73 -130 73q-99 0 -131 -76q-23 -53 -23 -181v-52q0 -98 37 -141q33 -39 103 -39h172v-178h-171q-80 0 -119 -33q-50 -42 -50 -147v-127q0 -125 43 -177q38 -46 118 -46l1 -1q0 1 1 1q177 0 255 -80q69 -72 69 -209q0 -46 -8 -104l-16 -133h-186z" />
    <glyph glyph-name="omicron" unicode="&#x3bf;" 
d="M429 -18q-206 0 -285 137q-58 100 -58 304v356q0 132 22 216q28 108 98 163q82 64 221 64q205 0 284 -137q57 -101 57 -305v-356q0 -207 -57 -306q-80 -136 -282 -136zM427 162q99 0 131 78q22 53 22 182v361q0 128 -20 179q-33 80 -133 80q-99 0 -131 -78
q-22 -53 -22 -182v-361q0 -128 21 -178q31 -81 132 -81z" />
    <glyph glyph-name="pi" unicode="&#x3c0;" horiz-adv-x="1099" 
d="M197 0v1022h-169v180h1019v-180h-168v-1022h-186v1022h-310v-1022h-186z" />
    <glyph glyph-name="rho" unicode="&#x3c1;" horiz-adv-x="891" 
d="M119 -366v1145q0 132 22 216q28 108 98 163q82 64 221 64q188 0 272 -137q68 -111 68 -305v-356q0 -208 -48 -306q-68 -136 -251 -136q-143 0 -195 143v-491h-187zM460 162q97 0 131 78q22 53 22 182v361q0 128 -20 179q-33 80 -133 80t-132 -78q-22 -53 -22 -182v-330
q0 -136 21 -195q34 -95 133 -95z" />
    <glyph glyph-name="uni03C2" unicode="&#x3c2;" horiz-adv-x="892" 
d="M567 -366l14 133q9 70 9 98q0 60 -29 88q-32 29 -113 29h-2q-139 0 -222 65q-71 56 -97 162q-22 84 -22 214v412q2 182 69 274q82 113 272 113q202 0 283 -126q57 -92 57 -271v-18h-186v20q0 102 -21 145q-34 70 -133 70q-98 0 -131 -78q-23 -53 -23 -182v-272
q0 -133 4 -196q7 -68 40 -107q39 -47 117 -47q177 0 255 -80q69 -72 69 -209q0 -46 -8 -104l-16 -133h-186z" />
    <glyph glyph-name="sigma" unicode="&#x3c3;" 
d="M429 -18q-206 0 -285 137q-58 100 -58 304v356q0 132 22 216q28 108 98 163q82 64 221 64h396v-181l-129 20q42 -50 60 -135q14 -66 14 -171v-331q0 -207 -57 -306q-80 -136 -282 -136zM427 162q99 0 131 78q22 53 22 182v361q0 128 -20 179q-33 80 -133 80h-3
q-96 -1 -128 -79q-22 -53 -22 -181v-361q0 -128 21 -178q31 -81 132 -81z" />
    <glyph glyph-name="tau" unicode="&#x3c4;" horiz-adv-x="652" 
d="M234 0v1022h-229v180h642v-180h-227v-1022h-186z" />
    <glyph glyph-name="upsilon" unicode="&#x3c5;" horiz-adv-x="891" 
d="M442 -18l-1 1q-194 4 -272 112q-63 87 -63 278v829h190v-824q0 -111 22 -151q33 -61 129 -62q102 1 135 60q23 43 23 153v824h190v-829q0 -189 -63 -278q-78 -108 -274 -112v-1h-16z" />
    <glyph glyph-name="phi" unicode="&#x3c6;" horiz-adv-x="1037" 
d="M424 -366v349q-132 6 -207 71q-66 56 -92 161q-20 80 -20 208v356q0 201 55 301q74 134 264 141v347h188v-347q191 -5 266 -142q54 -101 54 -299v-356q0 -203 -54 -301q-75 -135 -266 -140v-349h-188zM424 163v878q-86 -10 -113 -85q-19 -53 -19 -174v-361
q0 -121 18 -171q27 -80 114 -87zM612 163q83 7 113 84q19 50 19 175v361q0 122 -17 173q-28 78 -115 85v-878z" />
    <glyph glyph-name="chi" unicode="&#x3c7;" horiz-adv-x="793" 
d="M18 0l263 625l-248 577h197l171 -414l176 414h184l-248 -577l263 -625h-196l-187 451l-190 -451h-185z" />
    <glyph glyph-name="psi" unicode="&#x3c8;" horiz-adv-x="1026" 
d="M417 -366v349q-182 11 -253 118q-58 88 -58 272v829h190v-824q0 -102 18 -143q25 -57 103 -68v1401h187v-1401q82 10 108 67q19 43 19 144v824h190v-829q0 -186 -60 -273q-74 -107 -257 -117v-349h-187z" />
    <glyph glyph-name="omega" unicode="&#x3c9;" horiz-adv-x="1331" 
d="M421 -19q-144 0 -221 80q-62 64 -82 187q-12 71 -12 211l-1 273q0 229 81 348q91 133 298 139l1 -180q-99 -1 -148 -84q-45 -77 -45 -225v-278q0 -162 21 -217q14 -37 39.5 -54t69.5 -17q94 0 126 86q24 66 24 233v296h187v-296q0 -168 25 -233q31 -86 125 -86
q83 0 110 71q20 52 20 217v278q0 147 -45 224q-48 83 -148 84l1 180q208 -6 299 -139q80 -117 80 -347l-1 -273q0 -140 -12 -211q-20 -122 -83 -187q-77 -80 -220 -80q-160 0 -248 138q-88 -138 -241 -138z" />
    <glyph glyph-name="iotadieresis" unicode="&#x3ca;" horiz-adv-x="425" 
d="M92 1379q-92 0 -92 96q0 51 22 75t70 24q52 0 74.5 -23.5t22.5 -75.5q0 -49 -22.5 -72.5t-74.5 -23.5zM329 1379q-93 0 -93 96q0 51 22.5 75t70.5 24q52 0 74 -23.5t22 -75.5q0 -49 -22 -72.5t-74 -23.5zM120 0v1202h187v-1202h-187z" />
    <glyph glyph-name="upsilondieresis" unicode="&#x3cb;" horiz-adv-x="891" 
d="M332 1339q-92 0 -92 96q0 51 22 75t70 24q52 0 74.5 -23.5t22.5 -75.5q0 -49 -22.5 -72.5t-74.5 -23.5zM569 1339q-93 0 -93 96q0 51 22.5 75t70.5 24q52 0 74 -23.5t22 -75.5q0 -49 -22 -72.5t-74 -23.5zM442 -18l-1 1q-194 4 -272 112q-63 87 -63 278v829h190v-824
q0 -111 22 -151q33 -61 129 -62q102 1 135 60q23 43 23 153v824h190v-829q0 -189 -63 -278q-78 -108 -274 -112v-1h-16z" />
    <glyph glyph-name="omicrontonos" unicode="&#x3cc;" 
d="M347 1283l-17 263h183l-23 -263h-143zM429 -18q-206 0 -285 137q-58 100 -58 304v356q0 132 22 216q28 108 98 163q82 64 221 64q205 0 284 -137q57 -101 57 -305v-356q0 -207 -57 -306q-80 -136 -282 -136zM427 162q99 0 131 78q22 53 22 182v361q0 128 -20 179
q-33 80 -133 80q-99 0 -131 -78q-22 -53 -22 -182v-361q0 -128 21 -178q31 -81 132 -81z" />
    <glyph glyph-name="upsilontonos" unicode="&#x3cd;" horiz-adv-x="891" 
d="M381 1283l-18 263h182l-21 -263h-143zM442 -18l-1 1q-194 4 -272 112q-63 87 -63 278v829h190v-824q0 -111 22 -151q33 -61 129 -62q102 1 135 60q23 43 23 153v824h190v-829q0 -189 -63 -278q-78 -108 -274 -112v-1h-16z" />
    <glyph glyph-name="omegatonos" unicode="&#x3ce;" horiz-adv-x="1387" 
d="M566 1283l-18 263h182l-21 -263h-143zM401 -19q-144 0 -221 80q-62 64 -82 187q-12 71 -12 211l-1 273q0 229 81 348q91 133 298 139l1 -180q-99 -1 -148 -84q-45 -77 -45 -225v-278q0 -162 21 -217q14 -37 39.5 -54t69.5 -17q94 0 126 86q24 66 24 233v296h187v-296
q0 -168 25 -233q31 -86 125 -86q83 0 110 71q20 52 20 217v278q0 147 -45 224q-48 83 -148 84l1 180q208 -6 299 -139q80 -117 80 -347l-1 -273q0 -140 -12 -211q-20 -122 -83 -187q-77 -80 -220 -80q-160 0 -248 138q-88 -138 -241 -138z" />
    <glyph glyph-name="uni0401" unicode="&#x401;" horiz-adv-x="795" 
d="M299 1637q-92 0 -92 96q0 51 22 75t70 24q52 0 74.5 -23.5t22.5 -75.5q0 -49 -22.5 -72.5t-74.5 -23.5zM536 1637q-93 0 -93 96q0 51 22.5 75t70.5 24q52 0 74 -23.5t22 -75.5q0 -49 -22 -72.5t-74 -23.5zM122 0v1520l613 1v-184l-422 -1v-467h353v-184h-353v-502h422
v-183h-613z" />
    <glyph glyph-name="uni0402" unicode="&#x402;" horiz-adv-x="1071" 
d="M667 -18q-31 0 -57 6l-1 175h8q2 -1 8 -1q99 0 131 78q22 53 22 182v307q0 128 -20 179q-33 80 -133 80q-91 0 -126 -81q-25 -59 -27 -179v-728h-192v1336h-261v184h714v-184h-261v-311q52 143 193 143q185 0 253 -137q48 -100 48 -305v-302q0 -208 -48 -306
q-68 -136 -251 -136z" />
    <glyph glyph-name="uni0403" unicode="&#x403;" horiz-adv-x="774" 
d="M356 1600l129 263h182l-168 -263h-143zM122 0v1521h597v-182h-407v-1339h-190z" />
    <glyph glyph-name="uni0404" unicode="&#x404;" horiz-adv-x="919" 
d="M459 -18q-205 0 -290 136q-63 101 -63 302v681q0 204 65 305q84 134 288 134q140 0 226 -63q72 -55 103 -157q25 -82 25 -199v-65h-191v64q0 112 -27 164q-40 73 -136 73q-99 0 -135 -76q-27 -59 -27 -181v-231h371v-184h-371v-264q0 -124 25 -177q36 -79 137 -79
q96 0 134 70q29 54 29 166v65h191v-66q0 -118 -26 -199q-33 -103 -104 -156q-83 -63 -224 -63z" />
    <glyph glyph-name="uni0405" unicode="&#x405;" horiz-adv-x="902" 
d="M436 -18q-205 0 -286 108q-69 89 -69 289v87h190v-83q0 -117 31 -164q36 -54 132 -54q89 0 129 59q35 50 35 147v11q0 97 -29 156q-29 57 -105 105l-145 90q-132 83 -181 175q-45 83 -45 238v24q0 370 349 370q176 0 262 -98q81 -94 81 -277v-109h-190l-1 128
q-2 79 -36 123q-40 50 -118 50q-83 0 -123 -58q-35 -50 -33 -142l2 -32q2 -69 36.5 -126.5t97.5 -94.5l135 -78q125 -73 180 -177q49 -93 54 -239v-39q0 -191 -83 -287q-88 -102 -270 -102z" />
    <glyph glyph-name="uni0406" unicode="&#x406;" horiz-adv-x="446" 
d="M128 0v1521h191v-1521h-191z" />
    <glyph glyph-name="uni0407" unicode="&#x407;" horiz-adv-x="446" 
d="M95 1637q-92 0 -92 96q0 51 22 75t70 24q52 0 74.5 -23.5t22.5 -75.5q0 -49 -22.5 -72.5t-74.5 -23.5zM332 1637q-93 0 -93 96q0 51 22.5 75t70.5 24q52 0 74 -23.5t22 -75.5q0 -49 -22 -72.5t-74 -23.5zM128 0v1521h191v-1521h-191z" />
    <glyph glyph-name="uni0408" unicode="&#x408;" horiz-adv-x="642" 
d="M191 -16q-119 0 -185 54l58 161q25 -17 52 -24q30 -8 75 -8q86 0 116 45t30 171v1137h190v-1145q0 -194 -61 -282q-77 -109 -275 -109z" />
    <glyph glyph-name="uni0409" unicode="&#x409;" horiz-adv-x="1479" 
d="M18 -19v184q83 0 113 61q24 51 24 190v1106l725 -1v-555h131q183 0 267 -76q95 -87 95 -295v-230q0 -197 -96 -285q-86 -80 -257 -80h-332v1337h-343v-922q0 -232 -67 -329q-72 -105 -260 -105zM880 185h141q86 0 123 44t37 136v230q0 105 -38 147q-39 42 -134 42h-129
v-599z" />
    <glyph glyph-name="uni040A" unicode="&#x40a;" horiz-adv-x="1434" 
d="M120 0v1521h191v-580h333v580h192v-580h131q183 0 267 -76q95 -87 95 -296v-204q0 -197 -96 -285q-86 -80 -257 -80h-332v759h-333v-759h-191zM836 186h141q87 0 123.5 43.5t36.5 135.5v204q0 106 -38 148q-39 42 -133 42h-130v-573z" />
    <glyph glyph-name="uni040B" unicode="&#x40b;" horiz-adv-x="1071" 
d="M278 0v1336h-261v184h714v-184h-261v-444q52 146 200 146q181 0 249 -137q47 -98 47 -304v-597h-190v600q0 127 -20 179q-33 80 -133 80q-91 0 -126 -86q-27 -67 -27 -187v-586h-192z" />
    <glyph glyph-name="uni040C" unicode="&#x40c;" horiz-adv-x="905" 
d="M404 1602l129 263h182l-168 -263h-143zM126 0v1521h191v-662h107l254 661h205l-279 -746l302 -774h-205l-272 674h-112v-674h-191z" />
    <glyph glyph-name="uni040E" unicode="&#x40e;" horiz-adv-x="847" 
d="M427 1602q-133 0 -199 71q-60 65 -62 174h113q7 -67 35 -97q34 -37 113 -37q76 0 111 35q30 30 36 99h114q-5 -113 -64 -175q-67 -70 -197 -70zM173 0l156 536l-307 984h208l194 -713l205 713h189l-298 -970l-159 -550h-188z" />
    <glyph glyph-name="uni0410" unicode="&#x410;" horiz-adv-x="852" 
d="M7 0l275 1521h266l275 -1521h-193l-49 307h-331l-49 -307h-194zM278 481h275l-138 855z" />
    <glyph glyph-name="uni0411" unicode="&#x411;" horiz-adv-x="915" 
d="M127 0v1521h597v-182h-407v-373h133q182 0 266 -76q95 -87 95 -295v-230q0 -197 -96 -285q-86 -80 -257 -80h-331zM317 185h142q87 0 123.5 44t36.5 136v230q0 105 -38 147q-39 42 -133 42h-131v-599z" />
    <glyph glyph-name="uni0412" unicode="&#x412;" horiz-adv-x="915" 
d="M127 1v1520h341q338 0 338 -342v-92q0 -121 -35.5 -192.5t-115.5 -94.5q78 -18 125 -92q46 -74 46 -184v-134q0 -210 -84 -300q-83 -89 -270 -89h-345zM317 880h130q92 0 131 46.5t38 144.5l-1 94q0 83 -34 128q-39 52 -118 52h-146v-465zM317 184h154q86 0 122 36
q43 45 42 167v137q0 78 -43 129q-45 53 -123 53h-152v-522z" />
    <glyph glyph-name="uni0413" unicode="&#x413;" horiz-adv-x="786" 
d="M121 0v1523h607v-184h-416v-1339h-191z" />
    <glyph glyph-name="uni0414" unicode="&#x414;" horiz-adv-x="1052" 
d="M18 -175v360h17q67 0 109 165q37 148 52 357q13 185 13 341v473l694 -1v-1335h131v-360h-191v176h-634v-176h-191zM258 185h454v1151h-313l1 -289q0 -346 -25 -530q-31 -232 -117 -332z" />
    <glyph glyph-name="uni0415" unicode="&#x415;" horiz-adv-x="795" 
d="M122 0v1520l613 1v-184l-422 -1v-467h353v-184h-353v-502h422v-183h-613z" />
    <glyph glyph-name="uni0416" unicode="&#x416;" horiz-adv-x="1405" 
d="M18 0l308 775l-284 745h205l252 -661h109v662h191v-662h107l253 661h205l-285 -745l309 -775h-205l-271 673v1h-113v-674h-191v674h-115l1 -1l-271 -673h-205z" />
    <glyph glyph-name="uni0417" unicode="&#x417;" horiz-adv-x="881" 
d="M441 -18q-166 0 -251 92q-90 98 -90 291v85h189v-107q0 -84 40.5 -131t111.5 -47q80 0 115 45q39 50 39 176v128q0 104 -47 146q-37 33 -117 33l-84 1v176l90 2q71 0 107 44q41 50 41 164v63q0 112 -29 159q-34 55 -116 55q-78 0 -110.5 -46.5t-32.5 -145.5v-94h-191v84
q0 191 75 284q80 101 263 101q171 0 251 -96t80 -312q0 -164 -39 -246q-36 -75 -114 -101q92 -23 128 -107q35 -81 35 -243q0 -250 -78 -351q-79 -102 -266 -102z" />
    <glyph glyph-name="uni0418" unicode="&#x418;" horiz-adv-x="968" 
d="M125 0l4 1521h191l-6 -1132l314 1132h254v-1521h-191l8 1147l-333 -1147h-241z" />
    <glyph glyph-name="uni0419" unicode="&#x419;" horiz-adv-x="968" 
d="M538 1602q-133 0 -199 71q-60 65 -62 175h113q7 -68 35 -98q34 -37 113 -37t112 36q30 31 36 99h113q-5 -114 -64 -176q-67 -70 -197 -70zM125 0l4 1521h191l-7 -1132l315 1132h254v-1521h-191l7 1146l-332 -1146h-241z" />
    <glyph glyph-name="uni041A" unicode="&#x41a;" horiz-adv-x="905" 
d="M126 0v1521h191v-662h107l254 661h205l-279 -746l302 -774h-205l-272 674h-112v-674h-191z" />
    <glyph glyph-name="uni041B" unicode="&#x41b;" horiz-adv-x="992" 
d="M17 -19v184q83 0 113 61q24 51 24 190v1106l716 -1v-1521h-191v1337h-334v-922q0 -234 -67 -329q-74 -105 -261 -105z" />
    <glyph glyph-name="uni041C" unicode="&#x41c;" horiz-adv-x="1227" 
d="M128 0v1521h259l229 -1007l230 1007h258v-1521h-191l19 1236l-228 -1027h-175l-230 1031l20 -1240h-191z" />
    <glyph glyph-name="uni041D" unicode="&#x41d;" horiz-adv-x="968" 
d="M127 0v1521h191v-662h333v662h191v-1521h-191v674h-333v-674h-191z" />
    <glyph glyph-name="uni041E" unicode="&#x41e;" horiz-adv-x="883" 
d="M441 -18q-205 0 -290 136q-63 101 -63 302v681q0 204 65 305q84 134 288 134v-1l1 1q206 0 290 -135q64 -103 64 -304v-680q0 -202 -65 -305q-84 -134 -289 -134l-1 1v-1zM441 165h1q99 0 136 77q27 55 27 180v678q0 123 -25 178q-37 78 -138 78q-4 0 -5 1
q-96 -1 -131 -77q-27 -59 -27 -180v-679q0 -124 25 -177q36 -79 137 -79z" />
    <glyph glyph-name="uni041F" unicode="&#x41f;" horiz-adv-x="955" 
d="M120 0v1521h716v-1521h-191v1337h-334v-1337h-191z" />
    <glyph glyph-name="uni0420" unicode="&#x420;" horiz-adv-x="891" 
d="M121 0v1521h332q170 0 256 -80q96 -90 96 -285v-230q0 -208 -95 -294q-84 -77 -266 -77h-132v-555h-191zM312 737h130q94 0 134 43q38 42 38 146v230q0 91 -37.5 135.5t-122.5 44.5h-142v-599z" />
    <glyph glyph-name="uni0421" unicode="&#x421;" horiz-adv-x="870" 
d="M442 -18q-205 0 -290 136q-64 103 -64 302v681q0 202 65 305q84 134 289 134q140 0 226 -63q72 -55 103 -157q25 -82 25 -199v-65h-192v64q0 112 -27 164q-38 73 -135 73q-99 0 -135 -76q-27 -59 -27 -181v-679q0 -124 25 -177q36 -79 137 -79q95 0 133 70q29 54 29 166
v65h192v-66q0 -118 -26 -199q-33 -103 -104 -156q-83 -63 -224 -63z" />
    <glyph glyph-name="uni0422" unicode="&#x422;" horiz-adv-x="738" 
d="M272 0v1336h-261v184h714v-184h-261v-1336h-192z" />
    <glyph glyph-name="uni0423" unicode="&#x423;" horiz-adv-x="830" 
d="M168 0l156 536l-307 984h208l194 -713l205 713h189l-298 -970l-159 -550h-188z" />
    <glyph glyph-name="uni0424" unicode="&#x424;" horiz-adv-x="1109" 
d="M459 0v122q-144 0 -226 63q-72 54 -103 159q-24 81 -24 211v411q0 130 25 214q31 104 104 158q83 62 224 62v121h191v-121q143 0 226 -62q71 -55 104 -160q24 -81 24 -211v-412q0 -200 -65 -302q-84 -131 -289 -131v-122h-191zM459 305v912q-99 0 -135 -74
q-27 -55 -27 -178v-409q0 -122 25 -175q36 -76 137 -76zM650 305q99 0 136 73q27 53 27 178v410q0 125 -24 175q-36 75 -139 75v-911z" />
    <glyph glyph-name="uni0425" unicode="&#x425;" horiz-adv-x="884" 
d="M17 0l297 790l-272 731h209l193 -538l192 538h209l-279 -733l300 -788h-213l-216 594l-207 -594h-213z" />
    <glyph glyph-name="uni0426" unicode="&#x426;" horiz-adv-x="989" 
d="M774 -175v175h-652v1521h191v-1337h333v1337h191v-1337h128v-359h-191z" />
    <glyph glyph-name="uni0427" unicode="&#x427;" horiz-adv-x="957" 
d="M646 0v614q-52 -146 -199 -146q-184 0 -263 137q-62 107 -62 304v612h190v-615q0 -120 29 -178q40 -81 143 -81q94 0 133 95q29 71 29 199v580h191v-1521h-191z" />
    <glyph glyph-name="uni0428" unicode="&#x428;" horiz-adv-x="1236" 
d="M122 0v1518h191v-1334h217v1324h191v-1324h203v1334h191v-1518h-993z" />
    <glyph glyph-name="uni0429" unicode="&#x429;" horiz-adv-x="1316" 
d="M1071 -175v175h-949v1518h191v-1334h216v1324h191v-1324h203v1334h191v-1338h144v-355h-187z" />
    <glyph glyph-name="uni042A" unicode="&#x42a;" horiz-adv-x="972" 
d="M167 0v1337h-149v183h149v1h190v-555h132q183 0 267 -76q95 -87 95 -295v-230q0 -197 -96 -285q-86 -80 -257 -80h-331zM357 185h142q86 0 123 44t37 136v230q0 105 -38 147q-39 42 -134 42h-130v-599z" />
    <glyph glyph-name="uni042B" unicode="&#x42b;" horiz-adv-x="1291" 
d="M121 0v1521h191v-555h132q182 0 266 -76q95 -87 95 -295v-230q0 -197 -96 -285q-86 -80 -256 -80h-332zM987 0v1521h191v-1521h-191zM312 185h142q86 0 123 44t37 136v230q0 105 -38 147q-39 42 -134 42h-130v-599z" />
    <glyph glyph-name="uni042C" unicode="&#x42c;" horiz-adv-x="911" 
d="M121 0v1521h191v-555h132q182 0 266 -76q95 -87 95 -295v-230q0 -197 -96 -285q-86 -80 -256 -80h-332zM312 185h142q86 0 123 44t37 136v230q0 105 -38 147q-39 42 -134 42h-130v-599z" />
    <glyph glyph-name="uni042D" unicode="&#x42d;" horiz-adv-x="919" 
d="M417 -18q-141 0 -223 63q-72 53 -105 156q-26 81 -26 199v66h191v-65q0 -112 30 -166q37 -70 133 -70q102 0 138 79q24 51 24 177v264h-371v184h371v231q0 124 -26 181q-36 76 -136 76q-97 0 -135 -73q-28 -51 -28 -164v-64h-191v65q0 117 25 199q31 102 104 157
q84 63 225 63q203 0 289 -134q64 -102 64 -305v-681q0 -201 -63 -302q-85 -136 -290 -136z" />
    <glyph glyph-name="uni042E" unicode="&#x42e;" horiz-adv-x="1331" 
d="M866 -18q-205 0 -290 136q-63 101 -63 302v245h-201v-665h-191v1521h191v-672h201v252q0 204 65 305q84 134 288 134v-1l1 1q206 0 290 -135q64 -103 64 -304v-680q0 -202 -65 -305q-84 -134 -289 -134l-1 1v-1zM866 165h1q99 0 136 77q27 55 27 180v678q0 126 -24 178
q-37 78 -139 78q-4 0 -5 1q-96 -1 -131 -77q-27 -59 -27 -180v-679q0 -124 25 -177q36 -79 137 -79z" />
    <glyph glyph-name="uni042F" unicode="&#x42f;" horiz-adv-x="857" 
d="M-31 0q46 94 54 178l20 214q12 114 41 175q28 59 93 102q-80 52 -121 126q-47 84 -47 179v157q0 208 86 300q83 89 269 89h345v-1520h-191v608h-113q-61 0 -105 -48q-53 -59 -64 -172l-22 -215q-5 -47 -20 -103q-12 -37 -14 -41q-3 -6 -6.5 -16t-4.5 -13h-200zM366 792
h152v544h-154q-84 0 -119 -36q-45 -45 -45 -167v-159q0 -77 44 -129q45 -53 122 -53z" />
    <glyph glyph-name="uni0430" unicode="&#x430;" horiz-adv-x="890" 
d="M390 -19q-171 0 -244 111q-60 91 -60 265q0 167 51 240q68 95 251 95q111 0 199 -32v122q0 129 -22 182q-33 78 -131 78q-90 0 -124 -70q-24 -49 -24 -145v-20h-187v18q0 176 60 271q79 126 274 126q191 0 273 -113q68 -93 68 -274v-835h-186v131q-26 -73 -70 -108
q-52 -42 -128 -42zM430 161q88 0 127 78q30 60 30 167v91q-57 38 -160 38q-97 0 -130 -58q-23 -40 -23 -123q0 -92 30 -136q37 -57 126 -57z" />
    <glyph glyph-name="uni0431" unicode="&#x431;" horiz-adv-x="891" 
d="M447 -18q-141 0 -221 66q-71 57 -97 163q-22 83 -22 212v456q0 296 68 445q81 178 273 182q101 1 163 29q24 11 34 21q8 8 16 14l153 -1q-29 -108 -78 -150q-73 -62 -246 -62q-106 0 -153 -76q-39 -64 -46 -185q77 126 212 126q125 0 195 -65q57 -54 77 -163
q14 -76 14 -214v-356q0 -220 -55 -314q-77 -128 -287 -128zM448 162q98 0 131 78q22 53 22 182v361q0 128 -20 179q-33 80 -133 80q-60 0 -95 -35q-32 -32 -45 -90q-7 -32 -10 -84q-3 -46 -3 -89v-323q0 -128 21 -178q31 -81 132 -81z" />
    <glyph glyph-name="uni0432" unicode="&#x432;" horiz-adv-x="889" 
d="M120 0v1202h303q179 0 263.5 -84t84.5 -255v-7q0 -166 -135 -244q150 -79 150 -262v-7q0 -174 -82.5 -258.5t-260.5 -84.5h-323zM306 695h114q81 0 120 39t40 122v9q0 85 -43 125q-39 33 -115 33h-116v-328zM306 179h136q77 0 117.5 38t40.5 124v9q-1 85 -42 130.5
t-118 45.5h-134v-347z" />
    <glyph glyph-name="uni0433" unicode="&#x433;" horiz-adv-x="669" 
d="M110 0v1202h558v-187h-370v-1015h-188z" />
    <glyph glyph-name="uni0434" unicode="&#x434;" horiz-adv-x="979" 
d="M20 -175v355h6q38 0 71 49q66 98 94 377q14 145 14 322v275l621 -1v-1022h134v-355h-186v175h-568v-175h-186zM246 180h394v842h-248v-123q0 -274 -28 -431q-36 -199 -118 -288z" />
    <glyph glyph-name="uni0435" unicode="&#x435;" horiz-adv-x="853" 
d="M430 -18q-206 0 -285 137q-58 100 -58 304v356q0 132 22 216q28 108 98 163q82 64 221 64q204 0 284 -127q57 -93 57 -280v-225l-496 -88v-80q0 -129 21 -179q33 -81 134 -81q98 0 132 67q23 46 23 154v23h186v-22q0 -188 -57 -279q-79 -123 -282 -123zM273 665l310 59
v93q0 109 -21 154q-33 71 -134 71q-98 0 -131 -78q-24 -55 -24 -183v-116z" />
    <glyph glyph-name="uni0436" unicode="&#x436;" horiz-adv-x="1194" 
d="M19 0l304 601l-269 601h192l215 -507h41v506h188v-506h43l216 507h192l-269 -601l304 -601h-208l-237 512h-41v-512h-188v512h-39l-236 -512h-208z" />
    <glyph glyph-name="uni0437" unicode="&#x437;" horiz-adv-x="845" 
d="M411 -19q-338 0 -338 384v41h189v-64q0 -84 39 -130.5t110 -46.5q157 0 157 199q0 71 -37 112q-43 48 -127 48h-143v159l143 1q74 0 119 39.5t45 112.5v20q0 183 -157 183q-71 0 -110 -46.5t-39 -130.5v-65h-189v42q0 384 338 384q182 0 268 -97q79 -92 79 -272
q0 -100 -51 -177q-42 -60 -94 -77q67 -13 107 -89q38 -73 38 -174q0 -165 -79 -255q-88 -101 -268 -101z" />
    <glyph glyph-name="uni0438" unicode="&#x438;" horiz-adv-x="923" 
d="M119 0v1202h191v-800l274 800l163 1v-1h66l-5 -1202h-192v808l-269 -808h-228z" />
    <glyph glyph-name="uni0439" unicode="&#x439;" horiz-adv-x="923" 
d="M478 1283q-133 0 -199 71q-60 65 -62 174h113q7 -67 35 -97q34 -37 113 -37q78 0 111 35q30 31 36 99h114q-5 -113 -64 -175q-67 -70 -197 -70zM118 0v1202h192v-797l273 797l164 1l-1 -1h66l-5 -1202h-191v810l-270 -810h-228z" />
    <glyph glyph-name="uni043A" unicode="&#x43a;" horiz-adv-x="866" 
d="M121 0v1201h187v-506h98l215 507h192l-268 -601l303 -601h-208l-236 512h-96v-512h-187z" />
    <glyph glyph-name="uni043B" unicode="&#x43b;" horiz-adv-x="977" 
d="M18 -19v180q83 0 113 61q24 52 24 191v790l711 -1v-1202h-186v1022h-339v-607q0 -231 -69 -329q-74 -105 -254 -105z" />
    <glyph glyph-name="uni043C" unicode="&#x43c;" horiz-adv-x="1161" 
d="M124 0v1203h260l196 -716h11l200 716h259v-1203h-190l6 964l-192 -739h-177l-189 737l7 -962h-191z" />
    <glyph glyph-name="uni043D" unicode="&#x43d;" horiz-adv-x="923" 
d="M118 0v1202h188v-517h311v517h188v-1202h-188v500h-311v-500h-188z" />
    <glyph glyph-name="uni043E" unicode="&#x43e;" 
d="M429 -18q-206 0 -285 137q-58 100 -58 304v356q0 132 22 216q28 108 98 163q82 64 221 64q205 0 284 -137q57 -101 57 -305v-356q0 -207 -57 -306q-80 -136 -282 -136zM427 162q99 0 131 78q22 53 22 182v361q0 128 -20 179q-33 80 -133 80q-99 0 -131 -78
q-22 -53 -22 -182v-361q0 -128 21 -178q31 -81 132 -81z" />
    <glyph glyph-name="uni043F" unicode="&#x43f;" horiz-adv-x="923" 
d="M118 0v1202h687v-1202h-188v1022h-310v-1022h-189z" />
    <glyph glyph-name="uni0440" unicode="&#x440;" horiz-adv-x="891" 
d="M119 -366v1568h187v-123q49 143 193 143q127 0 200 -65q61 -57 84 -163q17 -79 17 -214v-356q0 -208 -48 -306q-68 -136 -251 -136q-143 0 -195 143v-491h-187zM460 162q97 0 131 78q22 53 22 182v361q0 128 -20 179q-33 80 -133 80q-89 0 -126 -81q-26 -58 -28 -179
v-360q0 -119 25 -177q36 -83 129 -83z" />
    <glyph glyph-name="uni0441" unicode="&#x441;" horiz-adv-x="846" 
d="M431 -18q-142 0 -223 65q-70 55 -98 162q-22 84 -22 214v302v55q0 36 1 55q2 182 69 274q82 113 271 113q203 0 284 -126q57 -92 57 -271v-18h-186v20q0 102 -21 145q-34 70 -134 70q-99 0 -131 -78q-22 -53 -22 -182v-272q0 -133 4 -196q7 -68 37 -106q36 -46 112 -46
q97 0 132 67q23 46 23 149v17h186v-16q0 -113 -21 -190q-27 -96 -97 -148q-80 -59 -221 -59z" />
    <glyph glyph-name="uni0442" unicode="&#x442;" horiz-adv-x="648" 
d="M232 0v1022h-219v180h622v-180h-218v-1022h-185z" />
    <glyph glyph-name="uni0443" unicode="&#x443;" horiz-adv-x="764" 
d="M258 -425l-83 130q61 31 103 80q52 62 67 155l9 60h-113l-244 1203h194l180 -1024h7l182 1024h193l-196 -966l-49 -307q-22 -133 -92 -227q-66 -87 -158 -128z" />
    <glyph glyph-name="uni0444" unicode="&#x444;" horiz-adv-x="1331" 
d="M571 -369v435q-57 -84 -166 -84q-127 0 -197 64q-61 54 -84 162q-18 84 -18 216v356q0 130 18 214q23 108 84 163q72 65 198 65q108 0 165 -78v377h188v-377q54 78 165 78q185 0 253 -137q48 -100 48 -305v-356q0 -208 -48 -306q-68 -136 -251 -136q-110 0 -167 85v-436
h-188zM446 162q87 0 125 66v735q-39 79 -125 79q-100 0 -132 -80q-21 -50 -21 -179v-361q0 -129 23 -182q32 -78 130 -78zM884 162q98 0 131 78q22 53 22 182v361q0 128 -20 179q-33 80 -133 80q-90 0 -125 -80v-734q35 -66 125 -66z" />
    <glyph glyph-name="uni0445" unicode="&#x445;" horiz-adv-x="797" 
d="M22 0l263 625l-248 577h197l171 -414l176 414h184l-248 -577l263 -625h-196l-187 451l-190 -451h-185z" />
    <glyph glyph-name="uni0446" unicode="&#x446;" horiz-adv-x="994" 
d="M758 -175v175h-637v1202h191v-1022h307v1022h191v-1022h135v-355h-187z" />
    <glyph glyph-name="uni0447" unicode="&#x447;" horiz-adv-x="923" 
d="M614 0v492q-49 -145 -197 -145q-126 0 -196 65q-58 53 -82 163q-18 84 -18 213v414h187v-417q0 -128 21 -178q31 -81 133 -81q94 0 129 94q23 64 23 200v382h188v-1202h-188z" />
    <glyph glyph-name="uni0448" unicode="&#x448;" horiz-adv-x="1230" 
d="M118 0v1202h191v-1022h216v1012h191v-1012h203v1022h191v-1202h-992z" />
    <glyph glyph-name="uni0449" unicode="&#x449;" horiz-adv-x="1275" 
d="M1045 -175v175h-924v1202h191v-1022h217v1012h191v-1012h203v1022h191v-1022h117v-355h-186z" />
    <glyph glyph-name="uni044A" unicode="&#x44a;" horiz-adv-x="966" 
d="M177 0v1027h-159v175h350v-384h132q182 0 266 -76q95 -87 95 -295v-82q0 -197 -96 -285q-86 -80 -257 -80h-331zM368 185h142q86 0 122.5 44t36.5 136v82q0 105 -38 147q-39 42 -133 42h-130v-451z" />
    <glyph glyph-name="uni044B" unicode="&#x44b;" horiz-adv-x="1306" 
d="M121 0v1202h190v-384h132q183 0 267 -76q95 -87 95 -295v-82q0 -197 -96 -285q-86 -80 -257 -80h-331zM997 0v1202h188v-1202h-188zM311 185h142q87 0 123.5 44t36.5 136v82q0 105 -38 147q-39 42 -133 42h-131v-451z" />
    <glyph glyph-name="uni044C" unicode="&#x44c;" horiz-adv-x="881" 
d="M117 0v1202h190v-384h133q182 0 266 -76q95 -87 95 -295v-82q0 -197 -96 -285q-86 -80 -257 -80h-331zM307 185h142q87 0 123.5 44t36.5 136v82q0 105 -38 147q-39 42 -133 42h-131v-451z" />
    <glyph glyph-name="uni044D" unicode="&#x44d;" horiz-adv-x="857" 
d="M419 -18q-140 0 -220 59q-72 53 -97 148q-22 76 -22 190v16h186v-17q0 -103 24 -149q34 -67 131 -67q77 0 113 46q29 37 36 106q4 63 4 196v12l-349 -2v171l349 -5v96q0 129 -22 182q-32 78 -131 78q-100 0 -134 -70q-21 -43 -21 -145v-20h-186v18q0 179 58 271
q79 126 283 126q189 0 271 -113q67 -92 69 -274q1 -19 1 -55v-55v-302q0 -130 -22 -214q-28 -107 -98 -162q-81 -65 -223 -65z" />
    <glyph glyph-name="uni044E" unicode="&#x44e;" horiz-adv-x="1265" 
d="M837 -18q-206 0 -285 137q-58 100 -58 304v71h-197v-494h-188v1202h188v-540h197v117q0 132 22 216q28 108 98 163q82 64 221 64q205 0 284 -137q57 -101 57 -305v-356q0 -207 -57 -306q-80 -136 -282 -136zM835 162q99 0 131 78q22 53 22 182v361q0 128 -20 179
q-33 80 -133 80q-99 0 -131 -78q-22 -53 -22 -182v-361q0 -128 21 -178q31 -81 132 -81z" />
    <glyph glyph-name="uni044F" unicode="&#x44f;" horiz-adv-x="852" 
d="M44 0q37 79 46 160l12 93q16 119 43 173q25 50 90 89q-75 47 -118 122.5t-43 172.5v49q0 176 81 258q85 85 263 85h323v-1202h-187v456h-102q-65 -9 -99 -45q-47 -48 -63 -163l-13 -93q-15 -96 -39 -155h-194zM421 635h133v388h-135q-78 0 -118 -37.5t-40 -124.5v-51
q2 -175 160 -175z" />
    <glyph glyph-name="uni0451" unicode="&#x451;" horiz-adv-x="853" 
d="M307 1318q-92 0 -92 96q0 51 22 75t70 24q52 0 74.5 -23.5t22.5 -75.5q0 -49 -22.5 -72.5t-74.5 -23.5zM544 1318q-93 0 -93 96q0 51 22.5 75t70.5 24q52 0 74 -23.5t22 -75.5q0 -49 -22 -72.5t-74 -23.5zM430 -18q-206 0 -285 137q-58 100 -58 304v356q0 132 22 216
q28 108 98 163q82 64 221 64q204 0 284 -127q57 -93 57 -280v-225l-496 -88v-80q0 -129 21 -179q33 -81 134 -81q98 0 132 67q23 46 23 154v23h186v-22q0 -188 -57 -279q-79 -123 -282 -123zM273 665l310 59v93q0 109 -21 154q-33 71 -134 71q-98 0 -131 -78
q-24 -55 -24 -183v-116z" />
    <glyph glyph-name="uni0452" unicode="&#x452;" horiz-adv-x="893" 
d="M438 -409q-120 0 -185 53l58 162q25 -17 52 -24q30 -8 75 -8q86 0 117 45q31 44 31 171v795q0 127 -20 179q-33 80 -133 80q-93 0 -129 -95q-24 -64 -24 -199v-750h-187v1306h-75v147h75v121h187v-121h82v-147h-82v-228q49 145 198 145q180 0 248 -137q47 -98 47 -304
v-800q0 -194 -61 -282q-77 -109 -274 -109z" />
    <glyph glyph-name="uni0453" unicode="&#x453;" horiz-adv-x="744" 
d="M277 1307l129 263h182l-168 -263h-143zM101 0v1202h557v-187h-369v-1015h-188z" />
    <glyph glyph-name="uni0454" unicode="&#x454;" horiz-adv-x="890" 
d="M447 -18q-142 0 -223 65q-70 55 -98 162q-22 84 -22 214v302v55q0 36 1 55q2 182 69 274q82 113 271 113q203 0 284 -126q57 -92 57 -271v-18h-186v20q0 102 -21 145q-34 70 -134 70q-99 0 -131 -78q-22 -53 -22 -182v-96l349 5v-171l-349 2v-12q0 -133 4 -196
q7 -68 37 -106q36 -46 112 -46q97 0 132 67q23 46 23 149v17h186v-16q0 -113 -21 -190q-27 -96 -97 -148q-80 -59 -221 -59z" />
    <glyph glyph-name="uni0455" unicode="&#x455;" horiz-adv-x="860" 
d="M428 -18q-185 0 -266 109q-70 92 -70 282h187q0 -95 30 -146q38 -65 117 -65q72 0 107.5 40.5t35.5 110.5q0 78 -72 140q-31 25 -75 52q-113 65 -171 106q-89 62 -127 153q-20 49 -20 112q0 170 76 256q79 90 253 90q162 0 238 -80q85 -90 85 -290l-188 1q0 85 -27 132
q-33 57 -108 57q-67 0 -104 -44q-36 -40 -36 -101q0 -71 74 -132q32 -28 76 -52q128 -75 173 -107q91 -66 129 -157q20 -51 20 -114q0 -166 -77 -256q-83 -97 -260 -97z" />
    <glyph glyph-name="uni0456" unicode="&#x456;" horiz-adv-x="425" 
d="M212 1383q-112 0 -112 95q0 98 112 98q61 0 88.5 -24t27.5 -74q0 -49 -27.5 -72t-88.5 -23zM120 0v1202h187v-1202h-187z" />
    <glyph glyph-name="uni0457" unicode="&#x457;" horiz-adv-x="425" 
d="M100 1376q-92 0 -92 96q0 51 22 75t70 24q52 0 74.5 -23.5t22.5 -75.5q0 -49 -22.5 -72.5t-74.5 -23.5zM337 1376q-93 0 -93 96q0 51 22.5 75t70.5 24q52 0 74 -23.5t22 -75.5q0 -49 -22 -72.5t-74 -23.5zM120 0v1202h187v-1202h-187z" />
    <glyph glyph-name="uni0458" unicode="&#x458;" horiz-adv-x="427" 
d="M210 1383q-112 0 -112 95q0 98 112 98q61 0 88.5 -24t27.5 -74q0 -49 -27.5 -72t-88.5 -23zM33 -408q-109 0 -190 59l14 157q70 -39 151 -39q71 0 94 50q17 40 17 172v1211h188v-1211q0 -209 -47 -292q-60 -107 -227 -107z" />
    <glyph glyph-name="uni0459" unicode="&#x459;" horiz-adv-x="1414" 
d="M41 -19v184q83 0 113 61q24 51 24 190v786h684v-384h132q182 0 266 -76q95 -87 95 -295v-82q0 -197 -96 -285q-86 -80 -256 -80h-332v1022h-303v-607q0 -232 -67 -329q-72 -105 -260 -105zM862 185h142q86 0 123 44t37 136v82q0 105 -38 147q-39 42 -134 42h-130v-451z
" />
    <glyph glyph-name="uni045A" unicode="&#x45a;" horiz-adv-x="1403" 
d="M120 0v1202h187v-423h311v423h186v-423h133q182 0 266 -76q95 -87 95 -296v-42q0 -197 -96 -285q-86 -80 -256 -80h-328v597h-311v-597h-187zM803 185h144q86 0 123 44t37 136v42q0 106 -38 148q-39 42 -134 42h-131z" />
    <glyph glyph-name="uni045B" unicode="&#x45b;" horiz-adv-x="894" 
d="M93 0v921h-75v150h75v131h187v-131h82v-150h-82v-211q49 145 198 145q180 0 248 -137q47 -98 47 -304v-414h-187v417q0 127 -20 179q-33 80 -133 80q-93 0 -129 -95q-24 -64 -24 -199v-382h-187z" />
    <glyph glyph-name="uni045C" unicode="&#x45c;" horiz-adv-x="850" 
d="M352 1283l129 263h182l-168 -263h-143zM102 0v1201h187v-506h98l215 507h192l-268 -601l303 -601h-208l-236 512h-96v-512h-187z" />
    <glyph glyph-name="uni045E" unicode="&#x45e;" horiz-adv-x="720" 
d="M378 1299q-133 0 -199 71q-60 65 -62 174h113q7 -67 35 -97q34 -37 113 -37q76 0 111 35q30 30 36 99h114q-5 -113 -64 -175q-67 -70 -197 -70zM268 0v458l-259 744h187l169 -539l172 539h174l-252 -744v-458h-191z" />
    <glyph glyph-name="uni0474" unicode="&#x474;" horiz-adv-x="10" 
 />
    <glyph glyph-name="uni0490" unicode="&#x490;" horiz-adv-x="865" 
d="M121 0v1521h457v176h185v-360h-451v-1337h-191z" />
    <glyph glyph-name="uni0491" unicode="&#x491;" horiz-adv-x="808" 
d="M121 0v1202h410v170l183 -2v-348h-407v-1022h-186z" />
    <glyph glyph-name="uni04D9" unicode="&#x4d9;" horiz-adv-x="895" 
d="M451 -19q-205 0 -283 128q-58 92 -58 279v225l496 88v80q0 129 -21 180q-33 80 -134 80q-98 0 -131 -66q-24 -47 -24 -155v-23h-186v22q0 188 58 279q77 123 281 123q206 0 285 -137q58 -100 58 -304v-356q0 -207 -58 -307q-79 -136 -283 -136zM451 161q98 0 132 78
q23 55 23 183v116l-310 -59v-93q0 -109 21 -154q33 -71 134 -71z" />
    <glyph glyph-name="Wgrave" unicode="&#x1e80;" horiz-adv-x="1324" 
d="M580 1602l-164 263h172l130 -263h-138zM242 0l-210 1521h193l150 -1280l159 1280h251l159 -1280l150 1280h193l-209 -1521h-257l-162 1259l-161 -1259h-256z" />
    <glyph glyph-name="wgrave" unicode="&#x1e81;" horiz-adv-x="1274" 
d="M546 1283l-164 263h172l130 -263h-138zM202 0l-183 1203h193l138 -1024h12l138 1024h280l138 -1024h12l138 1024h193l-183 -1203h-298l-140 1022h-1l-139 -1022h-298z" />
    <glyph glyph-name="Wacute" unicode="&#x1e82;" horiz-adv-x="1324" 
d="M587 1602l129 263h182l-168 -263h-143zM242 0l-210 1521h193l150 -1280l159 1280h251l159 -1280l150 1280h193l-209 -1521h-257l-162 1259l-161 -1259h-256z" />
    <glyph glyph-name="wacute" unicode="&#x1e83;" horiz-adv-x="1274" 
d="M545 1283l129 263h182l-168 -263h-143zM202 0l-183 1203h193l138 -1024h12l138 1024h280l138 -1024h12l138 1024h193l-183 -1203h-298l-140 1022h-1l-139 -1022h-298z" />
    <glyph glyph-name="Wdieresis" unicode="&#x1e84;" horiz-adv-x="1324" 
d="M543 1637q-92 0 -92 96q0 51 22 75t70 24q52 0 74.5 -23.5t22.5 -75.5q0 -49 -22.5 -72.5t-74.5 -23.5zM780 1637q-93 0 -93 96q0 51 22.5 75t70.5 24q52 0 74 -23.5t22 -75.5q0 -49 -22 -72.5t-74 -23.5zM242 0l-210 1521h193l150 -1280l159 1280h251l159 -1280
l150 1280h193l-209 -1521h-257l-162 1259l-161 -1259h-256z" />
    <glyph glyph-name="wdieresis" unicode="&#x1e85;" horiz-adv-x="1274" 
d="M489 1318q-92 0 -92 96q0 51 22 75t70 24q52 0 74.5 -23.5t22.5 -75.5q0 -49 -22.5 -72.5t-74.5 -23.5zM726 1318q-93 0 -93 96q0 51 22.5 75t70.5 24q52 0 74 -23.5t22 -75.5q0 -49 -22 -72.5t-74 -23.5zM202 0l-183 1203h193l138 -1024h12l138 1024h280l138 -1024h12
l138 1024h193l-183 -1203h-298l-140 1022h-1l-139 -1022h-298z" />
    <glyph glyph-name="uni1E9E" unicode="&#x1e9e;" horiz-adv-x="905" 
d="M467 -4v182q98 0 136 79q28 58 28 183v94q0 120 -26 170q-37 70 -138 70h-26v168l168 403h-142q-98 0 -134 -78q-27 -59 -27 -183v-1083l-192 -1v1085q0 130 25 217q31 106 104 163q83 64 224 64l332 -1v-186l-189 -439q111 -39 164 -139q48 -90 48 -232v-92
q0 -202 -65 -307q-87 -137 -290 -137z" />
    <glyph glyph-name="Ygrave" unicode="&#x1ef2;" horiz-adv-x="803" 
d="M347 1593l-164 263h172l130 -263h-138zM309 0v576l-306 944h209l195 -677l203 677h191l-302 -944v-576h-190z" />
    <glyph glyph-name="ygrave" unicode="&#x1ef3;" horiz-adv-x="764" 
d="M325 1283l-164 263h172l130 -263h-138zM265 -425l-83 130q62 33 103 94q45 69 66 177l4 24h-122l-224 1203h193l175 -1038h9l25 137q13 81 39 232t37 219q9 55 35.5 210t40.5 240h193q-14 -79 -41.5 -224.5t-34.5 -184.5q-11 -59 -36.5 -197.5t-39.5 -212.5l-74 -401
q-62 -315 -265 -408z" />
    <glyph glyph-name="figuredash" unicode="&#x2012;" horiz-adv-x="651" 
d="M77 507v167h506v-167h-506z" />
    <glyph glyph-name="endash" unicode="&#x2013;" horiz-adv-x="835" 
d="M58 505v168h728v-168h-728z" />
    <glyph glyph-name="emdash" unicode="&#x2014;" horiz-adv-x="1297" 
d="M103 505v168h1083v-168h-1083z" />
    <glyph glyph-name="quoteleft" unicode="&#x2018;" horiz-adv-x="312" 
d="M53 1068v185q0 40 13 111q13 80 46 171l122 -22q-32 -123 -32 -192q0 -58 30 -58h31v-193z" />
    <glyph glyph-name="quoteright" unicode="&#x2019;" horiz-adv-x="312" 
d="M209 1054l-122 22q32 123 32 192q0 58 -30 58h-31v193l210 2v-185q0 -38 -12 -110q-15 -84 -47 -172z" />
    <glyph glyph-name="quotesinglbase" unicode="&#x201a;" horiz-adv-x="398" 
d="M219 -263l-122 22q32 123 32 192q0 58 -30 58h-31v193l210 2v-185q0 -38 -12 -110q-15 -84 -47 -172z" />
    <glyph glyph-name="quotedblleft" unicode="&#x201c;" horiz-adv-x="685" 
d="M57 1068v185q0 40 13 111q13 80 46 171l122 -22q-32 -123 -32 -192q0 -58 30 -58h31v-193zM400 1067v185q0 40 13 111q13 80 46 171l122 -22q-32 -123 -32 -192q0 -58 30 -58h31v-193z" />
    <glyph glyph-name="quotedblright" unicode="&#x201d;" horiz-adv-x="693" 
d="M557 1054l-122 22q32 123 32 192q0 58 -30 58h-31v193l210 2v-185q0 -38 -12 -110q-15 -84 -47 -172zM214 1053l-122 22q32 123 32 192q0 58 -30 58h-31v193l210 2v-185q0 -38 -12 -110q-15 -84 -47 -172z" />
    <glyph glyph-name="quotedblbase" unicode="&#x201e;" horiz-adv-x="726" 
d="M219 -263l-122 22q32 123 32 192q0 58 -30 58h-31v193l210 2v-185q0 -38 -12 -110q-15 -84 -47 -172zM562 -263l-122 22q32 123 32 192q0 58 -30 58h-31v193l210 2v-185q0 -38 -12 -110q-15 -84 -47 -172z" />
    <glyph glyph-name="dagger" unicode="&#x2020;" horiz-adv-x="873" 
d="M344 -243v1158h-278v182h278v426h187v-426h278v-182h-278v-1158h-187z" />
    <glyph glyph-name="daggerdbl" unicode="&#x2021;" horiz-adv-x="875" 
d="M344 -243v421h-278v182h278v555h-278v182h278v426h187v-426h278v-182h-278v-555h278v-182h-278v-421h-187z" />
    <glyph glyph-name="bullet" unicode="&#x2022;" horiz-adv-x="731" 
d="M367 437q-112 0 -189 77q-79 76 -79 188q0 114 79 191q77 77 189 77t189 -77t77 -191q0 -113 -77 -188q-77 -77 -189 -77z" />
    <glyph glyph-name="ellipsis" unicode="&#x2026;" horiz-adv-x="1202" 
d="M208 -18q-59 0 -86.5 26.5t-27.5 80.5q0 57 27.5 84t86.5 27q63 0 90.5 -26.5t27.5 -84.5q0 -55 -27.5 -81t-90.5 -26zM597 -18q-59 0 -86.5 26.5t-27.5 80.5q0 57 27.5 84t86.5 27q63 0 90.5 -26.5t27.5 -84.5q0 -55 -27.5 -81t-90.5 -26zM986 -18q-59 0 -86.5 26
t-27.5 81q0 57 27 84t87 27q63 0 90 -26.5t27 -84.5q0 -55 -27 -81t-90 -26z" />
    <glyph glyph-name="perthousand" unicode="&#x2030;" horiz-adv-x="2107" 
d="M341 620q-143 0 -203 77q-54 67 -54 216v289q0 172 45 243q56 91 212 91q155 0 211 -90q44 -71 44 -244v-246q0 -174 -44 -245q-56 -91 -211 -91zM431 0l452 1521h182l-453 -1521h-181zM341 772q49 0 69 32t20 106v294q0 97 -12 132q-19 48 -77 48q-60 0 -79 -48
q-12 -31 -12 -131v-252q0 -98 13 -132q18 -49 78 -49zM1146 -23q-143 0 -203 77q-54 68 -54 216v190q0 172 45 243q56 90 212 90t212 -90q44 -71 44 -243v-147q0 -173 -45 -245q-56 -91 -211 -91zM1746 -23q-142 0 -204 77q-54 68 -54 216v190q0 172 45 243q56 90 213 90
q155 0 211 -90q44 -71 44 -243v-147q0 -173 -45 -245q-56 -91 -210 -91zM1146 129q49 0 69.5 32.5t20.5 105.5v195q0 97 -13 132q-19 48 -77 48q-61 0 -78 -48q-13 -34 -13 -131v-153q0 -96 14 -132q18 -49 77 -49zM1746 129q48 0 68.5 33t20.5 105v195q0 97 -13 132
q-19 48 -76 48q-60 0 -79 -48q-12 -31 -12 -131v-153q0 -96 14 -132q18 -49 77 -49z" />
    <glyph glyph-name="guilsinglleft" unicode="&#x2039;" horiz-adv-x="479" 
d="M230 188l-179 402l179 404h189l-186 -404l186 -402h-189z" />
    <glyph glyph-name="guilsinglright" unicode="&#x203a;" horiz-adv-x="441" 
d="M49 188l186 402l-186 404h189l179 -404l-179 -402h-189z" />
    <glyph glyph-name="fraction" unicode="&#x2044;" horiz-adv-x="573" 
d="M110 -53l-164 32l494 1563l159 -32z" />
    <glyph glyph-name="uni2070" unicode="&#x2070;" horiz-adv-x="682" 
d="M343 839q-145 0 -205 77q-53 68 -53 215v375q0 172 46 244q57 90 212 90q153 0 209 -90q45 -72 45 -244v-331q0 -175 -44 -246q-56 -90 -210 -90zM343 992q50 0 70 30t20 102v388q0 95 -14 130q-18 46 -76 46q-61 0 -79 -45q-14 -35 -14 -130v-345q0 -95 15 -130
q20 -46 78 -46z" />
    <glyph glyph-name="uni2074" unicode="&#x2074;" horiz-adv-x="674" 
d="M383 858v152h-318v121l162 690h167l-150 -647h139v293h165v-293h69v-164h-69v-152h-165z" />
    <glyph glyph-name="uni2075" unicode="&#x2075;" horiz-adv-x="685" 
d="M341 839q-131 0 -196 71q-59 65 -59 192v37h165l1 -31q2 -116 88 -116q62 0 82 51q14 40 14 155q0 93 -16 130q-18 38 -73 38q-76 0 -96 -77v-18h-165l16 550h461v-157h-300l-13 -220q45 64 148 64q123 0 167 -80q37 -68 37 -240q0 -204 -61 -280q-56 -69 -200 -69z" />
    <glyph glyph-name="uni2076" unicode="&#x2076;" horiz-adv-x="682" 
d="M337 839q-153 0 -211 100q-42 72 -42 218v359q0 153 44 226q59 98 208 98q150 0 206 -90q41 -66 41 -199v-29h-162v24q0 63 -12 94q-19 47 -73 47q-57 0 -75 -50q-12 -35 -12 -119v-132q43 95 147 95q130 0 172 -91q28 -60 28 -216v-26q0 -152 -41 -218q-59 -91 -218 -91
zM341 992q60 0 79 45q12 29 12 105v21q0 77 -12 112q-19 54 -75 54q-59 0 -80 -51q-16 -38 -16 -115v-21q0 -65 10 -93q20 -57 82 -57z" />
    <glyph glyph-name="uni2077" unicode="&#x2077;" horiz-adv-x="575" 
d="M145 858l220 799h-166v-92h-155v256h502v-143l-223 -820h-178z" />
    <glyph glyph-name="uni2078" unicode="&#x2078;" horiz-adv-x="665" 
d="M334 839q-147 0 -208 80q-50 66 -50 198v47q0 147 80 201q-71 60 -71 201v5q0 132 52 196q59 73 196 73q141 0 198 -73q49 -65 49 -196v-15q0 -131 -71 -192q80 -55 80 -195v-52q0 -135 -48 -199q-60 -79 -207 -79zM334 1438q54 0 74 40q11 24 11 88v1q0 54 -13 82
q-20 39 -72 39q-55 0 -75 -43q-12 -24 -12 -77v-2q0 -62 12 -88q18 -40 75 -40zM334 994q56 0 77 39q17 31 17 97v25q0 66 -14 95q-21 39 -80 39q-60 0 -81 -39q-15 -29 -15 -95v-26q0 -63 15 -92q21 -43 81 -43z" />
    <glyph glyph-name="uni2079" unicode="&#x2079;" horiz-adv-x="682" 
d="M346 840q-147 0 -206 89q-42 64 -42 197v24h163v-19q0 -62 12 -91q18 -47 73 -47q56 0 75 50q12 34 12 118v134q-44 -99 -148 -99q-129 0 -171 91q-29 62 -29 215v29q0 154 42 219q59 91 218 91q150 0 211 -101q41 -70 41 -217v-359q0 -152 -43 -226q-59 -98 -208 -98z
M337 1348q59 0 80 51q16 38 16 115v24q0 68 -9 94q-22 57 -82 57t-79 -45q-13 -30 -13 -106v-24q0 -77 12 -112q19 -54 75 -54z" />
    <glyph glyph-name="uni207D" unicode="&#x207d;" horiz-adv-x="393" 
d="M371 779q-127 0 -197 65q-59 52 -81 148q-15 65 -15 166v360q0 89 11 145q20 103 76 160q72 74 206 74h20v-145h-20q-57 0 -90 -48q-24 -37 -32 -100q-5 -33 -5 -79v-378q0 -94 24 -148q32 -74 103 -74h20v-146h-20z" />
    <glyph glyph-name="uni207E" unicode="&#x207e;" horiz-adv-x="393" 
d="M39 779v146h20q71 0 103 74q24 54 24 148v378q0 46 -4 79q-10 65 -33 100q-33 48 -90 48h-20v145h20q133 0 207 -74q55 -57 75 -160q11 -56 11 -145v-360q0 -101 -15 -166q-22 -96 -80 -148q-71 -65 -198 -65h-20z" />
    <glyph glyph-name="uni2080" unicode="&#x2080;" horiz-adv-x="682" 
d="M343 -413q-145 0 -205 77q-53 68 -53 215v375q0 172 46 244q57 90 212 90q153 0 209 -90q45 -72 45 -244v-331q0 -175 -44 -246q-56 -90 -210 -90zM343 -260q50 0 70 30t20 102v388q0 95 -14 130q-18 46 -76 46q-61 0 -79 -45q-14 -35 -14 -130v-345q0 -95 15 -130
q20 -46 78 -46z" />
    <glyph glyph-name="uni2081" unicode="&#x2081;" horiz-adv-x="451" 
d="M183 -394v758q-45 -60 -141 -93v154q109 62 167 144h140v-963h-166z" />
    <glyph glyph-name="uni2082" unicode="&#x2082;" horiz-adv-x="667" 
d="M79 -394v156q14 97 105 202q42 48 82 87q102 98 140 164q23 41 23 85q0 129 -93 129q-53 0 -73 -42q-17 -33 -17 -91v-35h-164v51q0 129 59 200q63 77 198 77q254 0 254 -288q0 -111 -77 -216q-37 -49 -74 -84q-98 -96 -137 -154q-27 -39 -33 -84h316v-157h-509z" />
    <glyph glyph-name="uni2083" unicode="&#x2083;" horiz-adv-x="673" 
d="M338 -414q-127 0 -190 63q-70 68 -70 215v34h164v-30q0 -51 16 -83q22 -45 79 -45q46 0 70 24q26 28 26 89v41q0 79 -30 112q-27 28 -75 28l-61 1v133l66 1q43 1 68 31.5t25 86.5v10q0 70 -17 101q-21 38 -72 38q-48 0 -67.5 -31t-19.5 -92v-41l-164 -1v27q0 145 56 214
q60 76 197 76q129 0 188.5 -69t59.5 -217q0 -94 -31 -144q-29 -46 -80 -54q58 -12 85 -55q35 -56 35 -182q0 -154 -70 -222q-62 -59 -188 -59z" />
    <glyph glyph-name="uni2084" unicode="&#x2084;" horiz-adv-x="674" 
d="M383 -394v152h-318v121l162 690h167l-150 -647h139v293h165v-293h69v-164h-69v-152h-165z" />
    <glyph glyph-name="uni2085" unicode="&#x2085;" horiz-adv-x="685" 
d="M341 -413q-131 0 -196 71q-59 65 -59 192v37h165l1 -31q2 -116 88 -116q62 0 82 51q14 40 14 155q0 93 -16 130q-18 38 -73 38q-76 0 -96 -77v-18h-165l16 550h461v-157h-300l-13 -220q45 64 148 64q123 0 167 -80q37 -68 37 -240q0 -204 -61 -280q-56 -69 -200 -69z" />
    <glyph glyph-name="uni2086" unicode="&#x2086;" horiz-adv-x="682" 
d="M337 -413q-153 0 -211 100q-42 72 -42 218v359q0 153 44 226q59 98 208 98q150 0 206 -90q41 -66 41 -199v-29h-162v24q0 63 -12 94q-19 47 -73 47q-57 0 -75 -50q-12 -35 -12 -119v-132q43 95 147 95q130 0 172 -91q28 -60 28 -216v-26q0 -152 -41 -218
q-58 -91 -218 -91zM341 -260q60 0 79 45q12 29 12 105v21q0 77 -12 112q-19 54 -75 54q-59 0 -80 -51q-16 -38 -16 -115v-21q0 -65 10 -93q20 -57 82 -57z" />
    <glyph glyph-name="uni2087" unicode="&#x2087;" horiz-adv-x="575" 
d="M145 -394l220 799h-166v-92h-155v256h502v-143l-223 -820h-178z" />
    <glyph glyph-name="uni2088" unicode="&#x2088;" horiz-adv-x="665" 
d="M334 -413q-147 0 -208 80q-50 66 -50 198v47q0 147 80 201q-71 60 -71 201v5q0 132 52 196q59 73 196 73q141 0 198 -73q49 -65 49 -196v-15q0 -131 -71 -192q80 -55 80 -195v-52q0 -135 -48 -199q-60 -79 -207 -79zM334 186q54 0 74 40q11 24 11 88v1q0 54 -13 82
q-20 39 -72 39q-55 0 -75 -43q-12 -24 -12 -77v-2q0 -62 12 -88q18 -40 75 -40zM334 -258q56 0 77 39q17 31 17 97v25q0 66 -14 95q-21 39 -80 39q-60 0 -81 -39q-15 -29 -15 -95v-26q0 -63 15 -92q21 -43 81 -43z" />
    <glyph glyph-name="uni2089" unicode="&#x2089;" horiz-adv-x="682" 
d="M346 -412q-147 0 -206 89q-42 64 -42 197v24h163v-19q0 -62 12 -91q18 -47 73 -47q56 0 75 50q12 34 12 118v134q-44 -99 -148 -99q-129 0 -171 91q-29 62 -29 215v29q0 154 42 219q59 91 218 91q150 0 211 -101q41 -70 41 -217v-359q0 -152 -43 -226q-59 -98 -208 -98z
M337 96q59 0 80 51q16 38 16 115v24q0 68 -9 94q-22 57 -82 57t-79 -45q-13 -30 -13 -106v-24q0 -77 12 -112q19 -54 75 -54z" />
    <glyph glyph-name="uni208D" unicode="&#x208d;" horiz-adv-x="393" 
d="M371 -473q-127 0 -197 65q-59 52 -81 148q-15 65 -15 166v360q0 89 11 145q20 103 76 160q72 74 206 74h20v-145h-20q-57 0 -90 -48q-24 -37 -32 -100q-5 -33 -5 -79v-378q0 -94 24 -148q32 -74 103 -74h20v-146h-20z" />
    <glyph glyph-name="uni208E" unicode="&#x208e;" horiz-adv-x="393" 
d="M39 -473v146h20q71 0 103 74q24 54 24 148v378q0 46 -4 79q-10 65 -33 100q-33 48 -90 48h-20v145h20q133 0 207 -74q55 -57 75 -160q11 -56 11 -145v-360q0 -101 -15 -166q-22 -96 -80 -148q-71 -65 -198 -65h-20z" />
    <glyph glyph-name="lira" unicode="&#x20a4;" horiz-adv-x="859" 
d="M612 -14q-40 0 -168 13q-118 12 -172 12q-29 0 -112 -9q-11 -1 -33 -3.5t-33 -4.5v182q73 30 113 114q36 74 43 172h-160v146h150q-12 68 -26 118h-124v145h83q-62 215 -62 329q0 161 75 249q85 99 265 99q183 0 259 -121q68 -110 63 -332l-187 -2q0 5 -1.5 22.5
t-2.5 28.5q-6 76 -18 120q-18 64 -58 89q-23 14 -55 14q-149 0 -149 -202q0 -94 61 -294h295v-145h-254q15 -57 24 -118h230v-146h-222q-6 -86 -34 -165q-29 -83 -70 -121q32 5 57 5q47 0 103 -8q54 -8 96 -8q88 0 143 35l60 -157q-67 -57 -179 -57z" />
    <glyph glyph-name="Euro" unicode="&#x20ac;" horiz-adv-x="878" 
d="M455 -18q-143 0 -225 65q-72 54 -103 161q-25 80 -25 212v152h-76l14 124h62v124h-76l14 125h62v156q0 129 26 214q31 105 103 161q83 64 224 64q204 0 290 -133q64 -100 64 -286v-65h-191v64q0 111 -27 163q-39 74 -135 74q-99 0 -136 -76q-27 -56 -27 -181v-155h414
l-14 -125h-400v-124h379l-14 -124h-365v-151q0 -124 25 -177q36 -79 138 -79q95 0 133 70q29 54 29 166v65h191v-66q0 -185 -65 -286q-87 -132 -289 -132z" />
    <glyph glyph-name="uni2116" unicode="&#x2116;" horiz-adv-x="1814" 
d="M1354 398q-141 0 -223 66q-70 55 -98 162q-22 84 -22 214v251q0 132 22 216q28 108 98 163q82 64 222 64q204 0 283 -137q57 -101 57 -305v-251q0 -208 -57 -307q-78 -136 -282 -136zM122 0v1521h191v-1h22l329 -991v992h191v-1521h-196l-346 1071v-1071h-191zM1353 579
q97 0 130 78q22 52 22 182v256q0 128 -20 179q-33 80 -132 80t-132 -78q-22 -53 -22 -183v-255q0 -129 21 -179q32 -80 133 -80zM1083 157v167h545v-167h-545z" />
    <glyph glyph-name="trademark" unicode="&#x2122;" horiz-adv-x="1435" 
d="M610 558v965h203l164 -589h7l165 589h200v-965h-164l10 591h-3l-136 -475h-151l-137 475h-3l10 -591h-165zM214 558v806h-179v158h522v-158h-178v-806h-165z" />
    <glyph glyph-name="uni2126" unicode="&#x2126;" horiz-adv-x="911" 
d="M117 0v182h137l-3 143q-96 49 -128 178q-21 80 -21 252v346q0 202 65 305q84 134 289 134q142 0 227 -64q70 -54 103 -162q24 -82 24 -213v-345q0 -170 -22 -254q-34 -129 -128 -177l-2 -143h137v-182h-298v474q76 0 104 65q18 45 18 151v410q0 126 -24 178
q-37 78 -139 78q-4 0 -5 1q-95 -1 -131 -78q-27 -58 -27 -179v-344v-40q-1 -14 -1 -41q0 -96 20 -140q28 -61 104 -61v-474h-299z" />
    <glyph glyph-name="estimated" unicode="&#x212e;" horiz-adv-x="895" 
d="M450 -18q-206 0 -285 137q-58 100 -58 304v356q0 132 22 216q28 108 98 163q82 64 221 64q204 0 284 -127q57 -93 57 -280v-212l-517 -40v-298q7 -97 40 -143q43 -61 136 -61q110 0 150 79q28 56 28 176v100h163v-27q0 -189 -57 -281q-80 -126 -282 -126zM272 647l348 27
v321q-12 71 -46 105q-44 44 -126 44q-94 0 -136 -63q-33 -50 -40 -151v-283z" />
    <glyph glyph-name="partialdiff" unicode="&#x2202;" horiz-adv-x="869" 
d="M431 -18q-202 0 -281 137q-57 99 -57 307v121q0 139 15 215q20 110 78 165q70 65 192 65q149 -1 199 -137v231q0 137 -20 190q-31 81 -125 81h-10q-3 -1 -10 -1l-16 183q6 1 18 1h19q140 0 220 -64q68 -54 96 -162q20 -81 20 -215v-674q0 -133 -20 -214
q-29 -109 -96 -163q-80 -66 -222 -66zM431 165q91 0 125 74q21 49 21 157v137q0 130 -25 192q-34 83 -132 83q-90 0 -119 -90q-18 -56 -18 -184v-95q0 -134 21 -188q31 -86 127 -86z" />
    <glyph glyph-name="uni2206" unicode="&#x2206;" horiz-adv-x="863" 
d="M19 0l265 1521h298l263 -1521h-196l-207 1274h-18l-179 -1090h351l23 -184h-600z" />
    <glyph glyph-name="product" unicode="&#x220f;" horiz-adv-x="889" 
d="M121 -175v1695h648v-1695h-187v1515h-272v-1515h-189z" />
    <glyph glyph-name="summation" unicode="&#x2211;" 
d="M101 0v171l269 590l-264 589v171h644v-183h-435l253 -547v-61l-258 -547h450v-183h-659z" />
    <glyph glyph-name="minus" unicode="&#x2212;" horiz-adv-x="833" 
d="M95 619v168h643v-168h-643z" />
    <glyph glyph-name="approxequal" unicode="&#x2248;" horiz-adv-x="723" 
d="M458 777q-47 0 -109 34q-64 34 -91 34q-57 0 -91 -67l-94 39q27 79 70 123q46 48 114 48q44 0 112 -34q4 -2 15.5 -8t16 -8.5t14 -7t15.5 -6.5t14.5 -3.5t15.5 -1.5q51 0 85 67l95 -37q-25 -79 -67 -123q-47 -49 -115 -49zM458 422q-47 0 -109 34q-64 34 -91 34
q-57 0 -91 -67l-94 39q27 79 70 123q46 48 114 48q44 0 112 -34q4 -2 15.5 -8t16 -8.5t14 -7t15.5 -6.5t14.5 -3.5t15.5 -1.5q51 0 85 67l95 -37q-25 -79 -67 -123q-47 -49 -115 -49z" />
    <glyph glyph-name="notequal" unicode="&#x2260;" horiz-adv-x="833" 
d="M386 274l-142 38l29 107h-178v168h223l42 153h-265v168h310l43 156l141 -38l-32 -118h181v-168h-226l-42 -153h268v-168h-313z" />
    <glyph glyph-name="lessequal" unicode="&#x2264;" horiz-adv-x="764" 
d="M638 367l-536 381v149l536 381v-208l-338 -248l338 -247v-208zM92 145v168h563v-168h-563z" />
    <glyph glyph-name="greaterequal" unicode="&#x2265;" horiz-adv-x="748" 
d="M84 367v208l338 247l-338 248v208l536 -381v-149zM67 145v168h563v-168h-563z" />
    <glyph glyph-name="uniF6C3" unicode="&#xf6c3;" horiz-adv-x="0" 
d="M-181 -409l-74 41q27 43 37 68t15 65q-93 0 -93 88q0 47 23.5 68.5t73.5 21.5q101 0 101 -109q0 -83 -27 -149q-21 -52 -56 -94z" />
    <glyph glyph-name="uniF6E1" unicode="&#xf6e1;" horiz-adv-x="373" 
d="M209 -615l-87 48q31 46 44 80q11 30 18 77q-110 0 -110 107q0 111 114 111q119 0 119 -132q0 -101 -31 -179q-25 -63 -67 -112z" />
    <glyph glyph-name="uniF6E2" unicode="&#xf6e2;" horiz-adv-x="373" 
d="M209 636l-87 48q31 46 44 80q11 30 18 77q-110 0 -110 107q0 111 114 111q119 0 119 -132q0 -101 -31 -179q-25 -63 -67 -112z" />
    <glyph glyph-name="uniF6E5" unicode="&#xf6e5;" horiz-adv-x="530" 
d="M33 -1v157h476v-157h-476z" />
    <glyph glyph-name="uniF6E6" unicode="&#xf6e6;" horiz-adv-x="530" 
d="M33 1250v157h476v-157h-476z" />
    <glyph glyph-name="uniF6E7" unicode="&#xf6e7;" horiz-adv-x="384" 
d="M188 -416q-59 0 -86.5 26.5t-27.5 80.5q0 57 27.5 84t86.5 27q63 0 90.5 -26.5t27.5 -84.5q0 -55 -27.5 -81t-90.5 -26z" />
    <glyph glyph-name="uniF6E8" unicode="&#xf6e8;" horiz-adv-x="384" 
d="M188 835q-59 0 -86.5 26.5t-27.5 80.5q0 57 27.5 84t86.5 27q63 0 90.5 -26.5t27.5 -84.5q0 -55 -27.5 -81t-90.5 -26z" />
    <glyph glyph-name="uniF6F9" unicode="&#xf6f9;" horiz-adv-x="718" 
d="M117 0v383l-104 -86v179l104 86v640h188v-484l221 183v-179l-221 -183v-352h404v-187h-592z" />
    <glyph glyph-name="uniF6FA" unicode="&#xf6fa;" horiz-adv-x="1288" 
d="M450 -18q-206 0 -285 137q-58 100 -58 304v302v61q0 40 1 61q2 174 71 266q82 109 269 109q65 0 121 -29q32 -16 82 -60v69h541v-185h-404v-309h302v-185h-302v-338h404v-185h-541v58q-82 -76 -201 -76zM448 162q68 0 103 37q28 29 40 90q9 59 9 195v237q0 143 -11 193
q-6 26 -14 46q-16 38 -42 57q-35 25 -85 25q-68 0 -105 -39q-32 -33 -40 -92q-9 -64 -9 -192v-235q0 -63 0.5 -91.5t6.5 -72.5t19 -72q14 -38 41 -59q34 -27 87 -27z" />
    <glyph glyph-name="uniF6FD" unicode="&#xf6fd;" horiz-adv-x="780" 
d="M296 1283l-138 236h160l68 -133l69 133h159l-137 -236h-181zM385 -18q-185 0 -266 109q-70 92 -70 282h187q0 -95 30 -146q38 -65 117 -65q72 0 107.5 40.5t35.5 110.5q0 78 -72 140q-31 25 -75 52q-113 65 -171 106q-89 62 -127 153q-20 49 -20 112q0 170 76 256
q79 90 253 90q162 0 238 -80q85 -90 85 -290l-188 1q0 85 -27 132q-33 57 -108 57q-67 0 -104 -44q-36 -40 -36 -101q0 -71 74 -132q32 -28 76 -52q128 -75 173 -107q91 -66 129 -157q20 -51 20 -114q0 -166 -77 -256q-83 -97 -260 -97z" />
    <glyph glyph-name="uniF6FF" unicode="&#xf6ff;" horiz-adv-x="733" 
d="M288 1283l-138 236h160l68 -133l69 133h159l-137 -236h-181zM44 0v160l426 869h-397v173h604v-159l-424 -865h422v-178h-631z" />
    <glyph glyph-name="uniF730" unicode="&#xf730;" horiz-adv-x="887" 
d="M443 -18q-204 0 -282 133q-55 94 -55 299v374q0 135 21 214q26 103 96 158q79 62 220 62q144 0 223 -62q67 -53 95 -160q20 -80 20 -211v-374q0 -205 -57 -302q-77 -131 -281 -131zM297 515l287 385q-9 57 -35 92q-36 46 -106 46q-95 0 -126 -73q-20 -47 -20 -178v-272z
M443 165q96 0 128 73q20 47 20 178v196v44q0 28 -1 41l-287 -391q10 -61 35 -94q34 -47 105 -47z" />
    <glyph glyph-name="uniF731" unicode="&#xf731;" horiz-adv-x="624" 
d="M256 0v950q-32 -43 -103 -72q-60 -25 -129 -40v181q84 22 155 78q55 43 106 114h157v-1211h-186z" />
    <glyph glyph-name="uniF732" unicode="&#xf732;" horiz-adv-x="891" 
d="M121 0v182q24 123 151 253q47 49 114 107q138 118 193 202q32 52 32 107q0 184 -150 184q-85 0 -119 -62q-26 -46 -26 -139v-65h-191v82q0 173 76 266q84 103 263 103q168 0 252.5 -89t84.5 -277q0 -144 -109 -281q-49 -62 -102 -109q-7 -7 -30 -28t-32 -29.5
t-27.5 -26.5t-29 -28t-24.5 -25t-25 -27.5t-21 -24.5q-35 -44 -43 -92h438v-183h-675z" />
    <glyph glyph-name="uniF733" unicode="&#xf733;" horiz-adv-x="892" 
d="M447 -336q-166 0 -251 92q-90 98 -90 291v85h189v-107q0 -84 40.5 -131t111.5 -47q80 0 115 45q39 49 39 176v128q0 104 -47 146q-37 33 -117 33l-84 1v176l90 2q71 0 107 44q41 50 41 164v63q0 112 -29 159q-34 55 -116 55q-78 0 -110.5 -46.5t-32.5 -145.5v-94h-191v84
q0 191 75 284q80 101 263 101q171 0 251 -96t80 -312q0 -164 -39 -246q-36 -75 -114 -101q92 -23 128 -107q35 -81 35 -243q0 -250 -78 -351q-79 -102 -266 -102z" />
    <glyph glyph-name="uniF734" unicode="&#xf734;" horiz-adv-x="921" 
d="M553 -318v255h-432v135l254 1131h195l-244 -1082h227v439h186v-439h116v-184h-116v-255h-186z" />
    <glyph glyph-name="uniF735" unicode="&#xf735;" horiz-adv-x="892" 
d="M442 -336q-176 0 -259 94q-76 86 -76 256v118h191v-116q0 -169 141 -169q54 0 84.5 17t46.5 56q24 59 24 275q0 192 -27 254q-15 34 -42.5 48.5t-72.5 14.5q-63 0 -103 -31t-52 -91v-34h-190l21 847h609v-184h-421l-16 -419q56 90 212 90q90 0 144 -26.5t84 -85.5
q28 -57 38 -148.5t10 -239.5q0 -304 -81 -418q-41 -58 -105 -83t-160 -25z" />
    <glyph glyph-name="uniF736" unicode="&#xf736;" horiz-adv-x="886" 
d="M443 -18q-141 0 -221 66q-70 56 -96 163q-21 80 -21 214v674q0 135 21 215q26 106 96 162q80 64 219 64q137 0 216 -63q65 -54 92 -153q20 -75 20 -184v-56h-191v43q0 101 -18 150q-30 80 -118 80q-94 0 -125 -81q-20 -53 -20 -190v-231q50 136 199 137q122 0 192 -65
q57 -55 79 -165q14 -77 14 -215v-121q0 -208 -57 -307q-79 -137 -281 -137zM443 165q95 0 128 86q20 54 20 188v95q0 128 -18 184q-29 90 -119 90q-98 0 -132 -83q-25 -62 -25 -192v-137q0 -109 22 -157q32 -74 124 -74z" />
    <glyph glyph-name="uniF737" unicode="&#xf737;" horiz-adv-x="921" 
d="M263 -318l354 1337h-318v-185h-178v369h700v-147l-357 -1374h-201z" />
    <glyph glyph-name="uniF738" unicode="&#xf738;" horiz-adv-x="880" 
d="M431 -18q-195 0 -274 120q-63 95 -63 287v53q0 135 28 212q30 88 107 133q-70 43 -99 131q-25 76 -25 186v26q0 191 56 284q76 126 270 126q196 0 272 -126q55 -91 55 -285v-28q0 -107 -25 -179q-33 -91 -106 -135q79 -44 113 -134q29 -79 29 -193v-70q0 -194 -64 -289
q-80 -119 -274 -119zM431 881q89 0 118 76q18 46 18 142v17q0 122 -15 165q-28 76 -121 76q-92 0 -119 -75q-16 -42 -16 -165v-17q0 -100 17 -143q29 -76 118 -76zM431 165q92 0 124 68q24 50 24 170v48q0 112 -21 165q-34 81 -127 81q-92 0 -125 -81q-21 -53 -21 -166v-48
q0 -117 19 -163q30 -74 127 -74z" />
    <glyph glyph-name="uniF739" unicode="&#xf739;" horiz-adv-x="887" 
d="M445 -336q-138 0 -215 64q-65 53 -92 153q-20 74 -20 183v56h190v-43q0 -100 19 -149q32 -81 117 -81q94 0 127 82q20 53 20 189v231q-24 -66 -69 -100q-51 -37 -131 -37q-179 0 -242 139q-44 96 -44 306v121q0 206 57 307q78 137 281 137q141 0 222 -65q68 -56 96 -164
q20 -82 20 -214v-674q0 -135 -20 -215q-28 -108 -96 -162q-80 -64 -220 -64zM433 395q96 0 132 84q26 60 26 191v134q0 109 -21 159q-34 76 -127 76q-94 0 -126 -85q-20 -55 -20 -189v-96q0 -131 17 -183q29 -91 119 -91z" />
    <glyph glyph-name="uniF761" unicode="&#xf761;" horiz-adv-x="777" 
d="M12 0l223 1203h303l224 -1203h-194l-38 226h-287l-38 -226h-193zM270 391h232l-107 633h-18z" />
    <glyph glyph-name="uniF762" unicode="&#xf762;" horiz-adv-x="889" 
d="M120 0v1202h303q179 0 263.5 -84t84.5 -255v-7q0 -166 -135 -244q150 -79 150 -262v-7q0 -174 -82.5 -258.5t-260.5 -84.5h-323zM306 695h114q81 0 120 39t40 122v9q0 85 -43 125q-39 33 -115 33h-116v-328zM306 179h136q77 0 117.5 38t40.5 124v9q-1 85 -42 130.5
t-118 45.5h-134v-347z" />
    <glyph glyph-name="uniF763" unicode="&#xf763;" horiz-adv-x="846" 
d="M431 -18q-142 0 -223 65q-70 55 -98 162q-22 84 -22 214v302v55q0 36 1 55q2 182 69 274q82 113 271 113q203 0 284 -126q57 -92 57 -271v-18h-186v20q0 102 -21 145q-34 70 -134 70q-99 0 -131 -78q-22 -53 -22 -182v-272q0 -133 4 -196q7 -68 37 -106q36 -46 112 -46
q97 0 132 67q23 46 23 149v17h186v-16q0 -113 -21 -190q-27 -96 -97 -148q-80 -59 -221 -59z" />
    <glyph glyph-name="uniF764" unicode="&#xf764;" horiz-adv-x="889" 
d="M120 0v1202h323q199 0 285 -130q65 -102 65 -303v-336q0 -132 -26 -215q-32 -103 -104 -157q-81 -61 -222 -61h-321zM311 183h130q89 0 126 60.5t37 190.5v334q0 130 -36.5 190t-126.5 60h-130v-835z" />
    <glyph glyph-name="uniF765" unicode="&#xf765;" horiz-adv-x="774" 
d="M118 0v1202h592v-185h-404v-309h302v-185h-302v-338h404v-185h-592z" />
    <glyph glyph-name="uniF766" unicode="&#xf766;" horiz-adv-x="731" 
d="M118 0v1202h592v-187h-404v-330h307v-188h-307v-497h-188z" />
    <glyph glyph-name="uniF767" unicode="&#xf767;" horiz-adv-x="846" 
d="M429 -18q-142 0 -223 65q-70 55 -98 162q-22 84 -22 214v412q2 180 70 274q82 113 271 113q203 0 284 -126q57 -92 57 -271v-18h-186v20q0 102 -21 145q-34 70 -134 70q-99 0 -131 -78q-22 -53 -22 -182v-272q0 -133 4 -196q7 -68 37 -106q36 -46 112 -46q97 0 132 67
q23 46 23 149v97h-162v152h347l-5 -67h6v-181q0 -113 -21 -190q-27 -96 -97 -148q-80 -59 -221 -59z" />
    <glyph glyph-name="uniF768" unicode="&#xf768;" horiz-adv-x="923" 
d="M118 0v1202h188v-517h311v517h188v-1202h-188v500h-311v-500h-188z" />
    <glyph glyph-name="uniF769" unicode="&#xf769;" horiz-adv-x="425" 
d="M120 0v1202h187v-1202h-187z" />
    <glyph glyph-name="uniF76A" unicode="&#xf76a;" horiz-adv-x="610" 
d="M171 -18q-119 0 -185 54l61 159q58 -30 130 -30q82 0 112 47q30 46 30 172v818h188l-1 -822v-7q0 -194 -61 -282q-77 -109 -274 -109z" />
    <glyph glyph-name="uniF76B" unicode="&#xf76b;" horiz-adv-x="849" 
d="M118 0v1201h187v-506h98l215 507h192l-268 -601l303 -601h-208l-236 512h-96v-512h-187z" />
    <glyph glyph-name="uniF76C" unicode="&#xf76c;" horiz-adv-x="722" 
d="M118 0v1202h188v-1015h404v-187h-592z" />
    <glyph glyph-name="uniF76D" unicode="&#xf76d;" horiz-adv-x="1156" 
d="M118 0v1203h260l196 -716h11l200 716h259v-1203h-190l6 964l-192 -739h-177l-189 737l7 -962h-191z" />
    <glyph glyph-name="uniF76E" unicode="&#xf76e;" horiz-adv-x="931" 
d="M119 0l-5 1202h66v1l163 -1l274 -800v800h191v-1202h-228l-269 808v-808h-192z" />
    <glyph glyph-name="uniF76F" unicode="&#xf76f;" 
d="M429 -18q-206 0 -285 137q-58 100 -58 304v356q0 132 22 216q28 108 98 163q82 64 221 64q205 0 284 -137q57 -101 57 -305v-356q0 -207 -57 -306q-80 -136 -282 -136zM427 162q99 0 131 78q22 53 22 182v361q0 128 -20 179q-33 80 -133 80q-99 0 -131 -78
q-22 -53 -22 -182v-361q0 -128 21 -178q31 -81 132 -81z" />
    <glyph glyph-name="uniF770" unicode="&#xf770;" horiz-adv-x="841" 
d="M118 0v1202h323q179 0 261.5 -84.5t82.5 -258.5v-89q0 -182 -111 -273q-97 -81 -257 -81h-112v-416h-187zM305 595h133q158 0 160 175v91q0 87 -40 124.5t-118 37.5h-135v-428z" />
    <glyph glyph-name="uniF771" unicode="&#xf771;" 
d="M342 -175v165q-153 26 -212 156q-44 97 -44 277v356q0 132 22 216q28 108 98 163q82 64 221 64q205 0 284 -137q57 -101 57 -305v-356q0 -184 -44 -281q-59 -129 -212 -155v-163h-170zM427 162q99 0 131 78q22 53 22 182v361q0 128 -20 179q-33 80 -133 80
q-99 0 -131 -78q-22 -53 -22 -182v-361q0 -128 21 -178q31 -81 132 -81z" />
    <glyph glyph-name="uniF772" unicode="&#xf772;" horiz-adv-x="878" 
d="M118 0v1202h323q179 0 261.5 -84.5t82.5 -258.5v-49q0 -97 -43 -172.5t-118 -122.5q65 -39 90 -89q27 -54 43 -173l12 -93q10 -90 46 -160h-194q-24 59 -39 155l-13 93q-16 114 -62 163q-35 36 -100 45h-102v-456h-187zM305 635h133q158 0 160 175v51q0 87 -40 124.5
t-118 37.5h-135v-388z" />
    <glyph glyph-name="uniF773" unicode="&#xf773;" horiz-adv-x="780" 
d="M385 -18q-185 0 -266 109q-70 92 -70 282h187q0 -95 30 -146q38 -65 117 -65q72 0 107.5 40.5t35.5 110.5q0 78 -72 140q-31 25 -75 52q-113 65 -171 106q-89 62 -127 153q-20 49 -20 112q0 170 76 256q79 90 253 90q162 0 238 -80q85 -90 85 -290l-188 1q0 85 -27 132
q-33 57 -108 57q-67 0 -104 -44q-36 -40 -36 -101q0 -71 74 -132q32 -28 76 -52q128 -75 173 -107q91 -66 129 -157q20 -51 20 -114q0 -166 -77 -256q-83 -97 -260 -97z" />
    <glyph glyph-name="uniF774" unicode="&#xf774;" horiz-adv-x="652" 
d="M234 0v1022h-229v180h642v-180h-227v-1022h-186z" />
    <glyph glyph-name="uniF775" unicode="&#xf775;" horiz-adv-x="891" 
d="M442 -18l-1 1q-194 4 -272 112q-63 87 -63 278v829h190v-824q0 -111 22 -151q33 -61 129 -62q102 1 135 60q23 43 23 153v824h190v-829q0 -189 -63 -278q-78 -108 -274 -112v-1h-16z" />
    <glyph glyph-name="uniF776" unicode="&#xf776;" horiz-adv-x="773" 
d="M252 0l-244 1203h194l180 -1024h7l182 1024h193l-244 -1203h-268z" />
    <glyph glyph-name="uniF777" unicode="&#xf777;" horiz-adv-x="1319" 
d="M209 0l-183 1203h193l138 -1024h12l137 1024h281l138 -1024h12l138 1024h193l-183 -1203h-298l-140 1022h-2l-138 -1022h-298z" />
    <glyph glyph-name="uniF778" unicode="&#xf778;" horiz-adv-x="800" 
d="M21 0l264 625l-248 577h197l170 -414l177 414h183l-247 -577l263 -625h-196l-188 451l-190 -451h-185z" />
    <glyph glyph-name="uniF779" unicode="&#xf779;" horiz-adv-x="720" 
d="M268 0v458l-259 744h187l169 -539l172 539h174l-252 -744v-458h-191z" />
    <glyph glyph-name="uniF77A" unicode="&#xf77a;" horiz-adv-x="733" 
d="M44 0v160l426 869h-397v173h604v-159l-424 -865h422v-178h-631z" />
    <glyph glyph-name="uniF7E0" unicode="&#xf7e0;" horiz-adv-x="777" 
d="M328 1283l-164 263h172l130 -263h-138zM12 0l223 1203h303l224 -1203h-194l-38 226h-287l-38 -226h-193zM270 391h232l-107 633h-18z" />
    <glyph glyph-name="uniF7E1" unicode="&#xf7e1;" horiz-adv-x="777" 
d="M316 1283l129 263h182l-168 -263h-143zM12 0l223 1203h303l224 -1203h-194l-38 226h-287l-38 -226h-193zM270 391h232l-107 633h-18z" />
    <glyph glyph-name="uniF7E2" unicode="&#xf7e2;" horiz-adv-x="777" 
d="M161 1283l137 236h181l138 -236h-160l-68 133l-68 -133h-160zM12 0l223 1203h303l224 -1203h-194l-38 226h-287l-38 -226h-193zM270 391h232l-107 633h-18z" />
    <glyph glyph-name="uniF7E3" unicode="&#xf7e3;" horiz-adv-x="777" 
d="M491 1322q-47 0 -109 34q-64 34 -91 34q-57 0 -91 -67l-94 39q27 79 70 123q46 48 114 48q44 0 112 -34q4 -2 15.5 -8t16 -8.5t14 -7t15.5 -6.5t14.5 -3.5t15.5 -1.5q51 0 85 67l95 -37q-25 -79 -67 -123q-47 -49 -115 -49zM12 0l223 1203h303l224 -1203h-194l-38 226
h-287l-38 -226h-193zM270 391h232l-107 633h-18z" />
    <glyph glyph-name="uniF7E4" unicode="&#xf7e4;" horiz-adv-x="777" 
d="M269 1318q-92 0 -92 96q0 51 22 75t70 24q52 0 74.5 -23.5t22.5 -75.5q0 -49 -22.5 -72.5t-74.5 -23.5zM506 1318q-93 0 -93 96q0 51 22.5 75t70.5 24q52 0 74 -23.5t22 -75.5q0 -49 -22 -72.5t-74 -23.5zM12 0l223 1203h303l224 -1203h-194l-38 226h-287l-38 -226h-193z
M270 391h232l-107 633h-18z" />
    <glyph glyph-name="uniF7E5" unicode="&#xf7e5;" horiz-adv-x="777" 
d="M385 1283q-184 0 -184 175q0 92 44.5 136.5t139.5 44.5q103 0 147 -44.5t44 -136.5q0 -88 -44.5 -131.5t-146.5 -43.5zM387 1399q64 0 64 61q0 31 -14.5 46t-49.5 15q-61 0 -61 -61t61 -61zM12 0l223 1203h303l224 -1203h-194l-38 226h-287l-38 -226h-193zM270 391h232
l-107 633h-18z" />
    <glyph glyph-name="uniF7E6" unicode="&#xf7e6;" horiz-adv-x="1042" 
d="M483 -1v227h-195l-52 -226h-193l293 1202h632v-185h-298v-309h196v-185h-196v-338h298v-185zM326 391h157v633h-11z" />
    <glyph glyph-name="uniF7E7" unicode="&#xf7e7;" horiz-adv-x="846" 
d="M422 -374q-117 0 -179 69l32 73q35 -23 59 -32q34 -13 83 -13q40 0 63.5 16.5t23.5 47.5q0 27 -30 40q-27 12 -66 12q-28 0 -48 -6v154q-163 22 -225 153q-47 98 -47 283v302v55q0 36 1 55q2 182 69 274q82 113 271 113q203 0 284 -126q57 -92 57 -271v-18h-186v20
q0 102 -21 145q-34 70 -134 70q-99 0 -131 -78q-22 -53 -22 -182v-272q0 -133 4 -196q7 -68 37 -106q36 -46 112 -46q97 0 132 67q23 46 23 149v17h186v-16q0 -176 -52 -264q-74 -123 -256 -132v-54l15 3q27 3 36 3q55 0 95 -40q38 -40 38 -101q0 -82 -64 -127
q-59 -41 -160 -41z" />
    <glyph glyph-name="uniF7E8" unicode="&#xf7e8;" horiz-adv-x="774" 
d="M346 1283l-164 263h172l130 -263h-138zM118 0v1202h592v-185h-404v-309h302v-185h-302v-338h404v-185h-592z" />
    <glyph glyph-name="uniF7E9" unicode="&#xf7e9;" horiz-adv-x="774" 
d="M326 1283l129 263h182l-168 -263h-143zM118 0v1202h592v-185h-404v-309h302v-185h-302v-338h404v-185h-592z" />
    <glyph glyph-name="uniF7EA" unicode="&#xf7ea;" horiz-adv-x="774" 
d="M175 1283l137 236h181l138 -236h-160l-68 133l-68 -133h-160zM118 0v1202h592v-185h-404v-309h302v-185h-302v-338h404v-185h-592z" />
    <glyph glyph-name="uniF7EB" unicode="&#xf7eb;" horiz-adv-x="774" 
d="M291 1318q-92 0 -92 96q0 51 22 75t70 24q52 0 74.5 -23.5t22.5 -75.5q0 -49 -22.5 -72.5t-74.5 -23.5zM528 1318q-93 0 -93 96q0 51 22.5 75t70.5 24q52 0 74 -23.5t22 -75.5q0 -49 -22 -72.5t-74 -23.5zM118 0v1202h592v-185h-404v-309h302v-185h-302v-338h404v-185
h-592z" />
    <glyph glyph-name="uniF7EC" unicode="&#xf7ec;" horiz-adv-x="425" 
d="M138 1283l-164 263h172l130 -263h-138zM120 0v1202h187v-1202h-187z" />
    <glyph glyph-name="uniF7ED" unicode="&#xf7ed;" horiz-adv-x="425" 
d="M140 1283l129 263h182l-168 -263h-143zM120 0v1202h187v-1202h-187z" />
    <glyph glyph-name="uniF7EE" unicode="&#xf7ee;" horiz-adv-x="425" 
d="M-14 1283l137 236h181l138 -236h-160l-68 133l-68 -133h-160zM120 0v1202h187v-1202h-187z" />
    <glyph glyph-name="uniF7EF" unicode="&#xf7ef;" horiz-adv-x="425" 
d="M93 1318q-92 0 -92 96q0 51 22 75t70 24q52 0 74.5 -23.5t22.5 -75.5q0 -49 -22.5 -72.5t-74.5 -23.5zM330 1318q-93 0 -93 96q0 51 22.5 75t70.5 24q52 0 74 -23.5t22 -75.5q0 -49 -22 -72.5t-74 -23.5zM120 0v1202h187v-1202h-187z" />
    <glyph glyph-name="uniF7F0" unicode="&#xf7f0;" horiz-adv-x="902" 
d="M121 0v507h-113v167h113v528h323q199 0 285 -130q65 -102 65 -303v-336q0 -132 -26 -215q-32 -103 -104 -157q-81 -61 -222 -61h-321zM312 183h130q89 0 126 60.5t37 190.5v334q0 130 -36.5 190t-126.5 60h-130v-344h110v-167h-110v-324z" />
    <glyph glyph-name="uniF7F1" unicode="&#xf7f1;" horiz-adv-x="923" 
d="M582 1322q-47 0 -109 34q-64 34 -91 34q-57 0 -91 -67l-94 39q27 79 70 123q46 48 114 48q44 0 112 -34q4 -2 15.5 -8t16 -8.5t14 -7t15.5 -6.5t14.5 -3.5t15.5 -1.5q51 0 85 67l95 -37q-25 -79 -67 -123q-47 -49 -115 -49zM120 0l-5 1202h66v1l163 -1l274 -800v800h191
v-1202h-228l-269 808v-808h-192z" />
    <glyph glyph-name="uniF7F2" unicode="&#xf7f2;" 
d="M349 1283l-164 263h172l130 -263h-138zM429 -18q-206 0 -285 137q-58 100 -58 304v356q0 132 22 216q28 108 98 163q82 64 221 64q205 0 284 -137q57 -101 57 -305v-356q0 -207 -57 -306q-80 -136 -282 -136zM427 162q99 0 131 78q22 53 22 182v361q0 128 -20 179
q-33 80 -133 80q-99 0 -131 -78q-22 -53 -22 -182v-361q0 -128 21 -178q31 -81 132 -81z" />
    <glyph glyph-name="uniF7F3" unicode="&#xf7f3;" 
d="M346 1283l129 263h182l-168 -263h-143zM429 -18q-206 0 -285 137q-58 100 -58 304v356q0 132 22 216q28 108 98 163q82 64 221 64q205 0 284 -137q57 -101 57 -305v-356q0 -207 -57 -306q-80 -136 -282 -136zM427 162q99 0 131 78q22 53 22 182v361q0 128 -20 179
q-33 80 -133 80q-99 0 -131 -78q-22 -53 -22 -182v-361q0 -128 21 -178q31 -81 132 -81z" />
    <glyph glyph-name="uniF7F4" unicode="&#xf7f4;" 
d="M191 1283l137 236h181l138 -236h-160l-68 133l-68 -133h-160zM429 -18q-206 0 -285 137q-58 100 -58 304v356q0 132 22 216q28 108 98 163q82 64 221 64q205 0 284 -137q57 -101 57 -305v-356q0 -207 -57 -306q-80 -136 -282 -136zM427 162q99 0 131 78q22 53 22 182v361
q0 128 -20 179q-33 80 -133 80q-99 0 -131 -78q-22 -53 -22 -182v-361q0 -128 21 -178q31 -81 132 -81z" />
    <glyph glyph-name="uniF7F5" unicode="&#xf7f5;" 
d="M520 1322q-47 0 -109 34q-64 34 -91 34q-57 0 -91 -67l-94 39q27 79 70 123q46 48 114 48q44 0 112 -34q4 -2 15.5 -8t16 -8.5t14 -7t15.5 -6.5t14.5 -3.5t15.5 -1.5q51 0 85 67l95 -37q-25 -79 -67 -123q-47 -49 -115 -49zM429 -18q-206 0 -285 137q-58 100 -58 304v356
q0 132 22 216q28 108 98 163q82 64 221 64q205 0 284 -137q57 -101 57 -305v-356q0 -207 -57 -306q-80 -136 -282 -136zM427 162q99 0 131 78q22 53 22 182v361q0 128 -20 179q-33 80 -133 80q-99 0 -131 -78q-22 -53 -22 -182v-361q0 -128 21 -178q31 -81 132 -81z" />
    <glyph glyph-name="uniF7F6" unicode="&#xf7f6;" 
d="M299 1318q-92 0 -92 96q0 51 22 75t70 24q52 0 74.5 -23.5t22.5 -75.5q0 -49 -22.5 -72.5t-74.5 -23.5zM536 1318q-93 0 -93 96q0 51 22.5 75t70.5 24q52 0 74 -23.5t22 -75.5q0 -49 -22 -72.5t-74 -23.5zM429 -18q-206 0 -285 137q-58 100 -58 304v356q0 132 22 216
q28 108 98 163q82 64 221 64q205 0 284 -137q57 -101 57 -305v-356q0 -207 -57 -306q-80 -136 -282 -136zM427 162q99 0 131 78q22 53 22 182v361q0 128 -20 179q-33 80 -133 80q-99 0 -131 -78q-22 -53 -22 -182v-361q0 -128 21 -178q31 -81 132 -81z" />
    <glyph glyph-name="uniF7F8" unicode="&#xf7f8;" 
d="M172 -84l-141 4l99 225q-44 95 -44 278v356q0 132 22 216q28 108 98 163q82 64 221 64q96 0 164 -30l59 132l139 -4l-93 -212q44 -65 59 -150q13 -73 13 -178v-356q0 -207 -57 -306q-80 -136 -282 -136q-125 0 -206 51zM274 471l241 548q-32 23 -88 23q-99 0 -131 -78
q-22 -53 -22 -182v-311zM427 162q99 0 131 78q22 53 22 182v361v30q0 20 -1 30l-274 -623q37 -58 122 -58z" />
    <glyph glyph-name="uniF7F9" unicode="&#xf7f9;" horiz-adv-x="891" 
d="M391 1283l-164 263h172l130 -263h-138zM442 -18l-1 1q-194 4 -272 112q-63 87 -63 278v829h190v-824q0 -111 22 -151q33 -61 129 -62q102 1 135 60q23 43 23 153v824h190v-829q0 -189 -63 -278q-78 -108 -274 -112v-1h-16z" />
    <glyph glyph-name="uniF7FA" unicode="&#xf7fa;" horiz-adv-x="891" 
d="M373 1283l129 263h182l-168 -263h-143zM442 -18l-1 1q-194 4 -272 112q-63 87 -63 278v829h190v-824q0 -111 22 -151q33 -61 129 -62q102 1 135 60q23 43 23 153v824h190v-829q0 -189 -63 -278q-78 -108 -274 -112v-1h-16z" />
    <glyph glyph-name="uniF7FB" unicode="&#xf7fb;" horiz-adv-x="891" 
d="M225 1283l137 236h181l138 -236h-160l-68 133l-68 -133h-160zM442 -18l-1 1q-194 4 -272 112q-63 87 -63 278v829h190v-824q0 -111 22 -151q33 -61 129 -62q102 1 135 60q23 43 23 153v824h190v-829q0 -189 -63 -278q-78 -108 -274 -112v-1h-16z" />
    <glyph glyph-name="uniF7FC" unicode="&#xf7fc;" horiz-adv-x="891" 
d="M330 1318q-92 0 -92 96q0 51 22 75t70 24q52 0 74.5 -23.5t22.5 -75.5q0 -49 -22.5 -72.5t-74.5 -23.5zM567 1318q-93 0 -93 96q0 51 22.5 75t70.5 24q52 0 74 -23.5t22 -75.5q0 -49 -22 -72.5t-74 -23.5zM442 -18l-1 1q-194 4 -272 112q-63 87 -63 278v829h190v-824
q0 -111 22 -151q33 -61 129 -62q102 1 135 60q23 43 23 153v824h190v-829q0 -189 -63 -278q-78 -108 -274 -112v-1h-16z" />
    <glyph glyph-name="uniF7FD" unicode="&#xf7fd;" horiz-adv-x="720" 
d="M280 1283l129 263h182l-168 -263h-143zM268 0v458l-259 744h187l169 -539l172 539h174l-252 -744v-458h-191z" />
    <glyph glyph-name="uniF7FE" unicode="&#xf7fe;" horiz-adv-x="881" 
d="M114 0v1198h186v-201h137q178 0 260.5 -85t82.5 -259v-88q0 -182 -111 -273q-97 -81 -257 -81h-112v-211h-186zM300 390h134q78 0 118.5 45t41.5 130v90q0 87 -42 126q-39 36 -116 36h-136v-427z" />
    <glyph glyph-name="uniF7FF" unicode="&#xf7ff;" horiz-adv-x="720" 
d="M243 1318q-92 0 -92 96q0 51 22 75t70 24q52 0 74.5 -23.5t22.5 -75.5q0 -49 -22.5 -72.5t-74.5 -23.5zM480 1318q-93 0 -93 96q0 51 22.5 75t70.5 24q52 0 74 -23.5t22 -75.5q0 -49 -22 -72.5t-74 -23.5zM268 0v458l-259 744h187l169 -539l172 539h174l-252 -744v-458
h-191z" />
    <glyph glyph-name="s_t" unicode="&#xfb06;" horiz-adv-x="1512" 
d="M1473 197l14 -157q-81 -59 -191 -59q-166 0 -226 107q-47 83 -47 292v649h-124v174h124v67q-10 62 -47 94q-34 27 -80 27q-75 0 -110 -73q-23 -48 -23 -113v-353l-188 1q0 86 -25 132q-33 57 -107 57q-67 0 -106 -44q-37 -42 -37 -101q0 -71 74 -132q32 -28 76 -52
q128 -75 173 -107q91 -66 129 -157q20 -51 20 -114q0 -166 -77 -256q-83 -97 -260 -97q-185 0 -266 109q-70 92 -70 282h188q0 -93 30 -146q37 -65 116 -65q72 0 107.5 40.5t35.5 110.5q0 78 -72 140q-31 25 -75 52q-113 65 -171 106q-89 62 -127 153q-20 49 -20 112
q0 174 66 256q73 90 244 90q103 0 160 -76q0 48 -1 63q0 5 -0.5 12t-1 11t-0.5 7l-2 8q-1 0 -1 -2q0 64 20 124q27 86 89 136q79 64 209 64q150 0 232 -69q87 -74 88 -217v-80h238v-174h-239l-1 -649q0 -133 18 -172q21 -50 92 -50q82 0 152 39z" />
    <glyph glyph-name="M.001" horiz-adv-x="1227" 
d="M128 0v1521h259l229 -1007l230 1007h258v-1521h-191l19 1236l-228 -1027h-175l-230 1031l20 -1240h-191z" />
    <glyph glyph-name="V.001" horiz-adv-x="835" 
d="M284 0l-280 1521h193l219 -1342h1l219 1342h194l-280 -1521h-266z" />
    <glyph glyph-name="W.001" horiz-adv-x="1324" 
d="M242 0l-210 1521h193l150 -1280l159 1280h251l159 -1280l150 1280h193l-209 -1521h-257l-162 1259l-161 -1259h-256z" />
    <glyph glyph-name="f.001" horiz-adv-x="579" 
d="M136 0v1029h-128v174h128v8q0 209 47 292q61 107 226 107q106 0 191 -59l-14 -157q-70 39 -152 39q-71 0 -92 -50q-18 -39 -18 -172v-8h240v-174h-240v-1029h-188z" />
    <glyph glyph-name="DOT" horiz-adv-x="26" 
d="M237 290q-94 0 -94 92q0 93 94 93q50 0 73 -22.5t23 -70.5t-22.5 -70t-73.5 -22z" />
    <glyph glyph-name="Oslash.002" horiz-adv-x="883" 
d="M121 -80l46 173q-45 58 -63 149q-16 75 -16 178v681q0 204 65 305q84 134 288 134v-1l1 1q62 0 112 -12l19 71h186l-46 -168q46 -60 67 -150q16 -75 16 -180v-680q0 -202 -65 -305q-84 -134 -289 -134l-1 1v-1q-60 0 -114 13l-20 -75h-186zM279 507l226 839
q-27 10 -63 10q-4 0 -5 1q-96 -1 -131 -77q-27 -59 -27 -180v-593zM441 165h1q99 0 136 77q27 55 27 180v605l-230 -852q27 -10 66 -10z" />
    <glyph glyph-name="zero.fitted" horiz-adv-x="868" 
d="M434 -18q-204 0 -282 133q-55 94 -55 299v692q0 135 21 214q26 103 96 158q79 62 220 62q144 0 223 -62q67 -53 95 -160q20 -80 20 -211v-692q0 -205 -57 -302q-77 -131 -281 -131zM288 679l294 399v28q0 128 -18 175q-29 76 -130 76q-96 0 -126 -73q-20 -48 -20 -179
v-426zM434 165q96 0 128 73q20 47 20 178v422l-294 -408v-15q0 -128 18 -174q30 -76 128 -76z" />
    <glyph glyph-name="one.fitted" horiz-adv-x="868" 
d="M149 0v183h210v1078q-32 -43 -103 -72q-56 -23 -128 -39v181q84 22 155 78q55 43 106 114h157v-1340h194v-183h-591z" />
    <glyph glyph-name="two.fitted" horiz-adv-x="868" 
d="M93 0v165q20 148 149 350q51 81 114 169q139 193 194 328q33 80 33 160q0 185 -150 185q-85 0 -119 -62q-26 -46 -26 -139v-101h-191v117q0 174 76 267q84 103 263 103q168 0 252.5 -89.5t84.5 -276.5q0 -167 -102 -351q-46 -83 -99 -158q-138 -200 -197 -315
q-41 -80 -61 -169h454v-183h-675z" />
    <glyph glyph-name="three.fitted" horiz-adv-x="868" 
d="M432 -18q-166 0 -251 92q-90 98 -90 291v85h189v-107q0 -84 40.5 -131t111.5 -47q80 0 115 45q39 50 39 176v128q0 104 -47 146q-37 33 -117 33l-84 1v176l90 2q71 0 107 44q41 50 41 164v63q0 112 -29 159q-34 55 -116 55q-78 0 -110.5 -46.5t-32.5 -145.5v-94h-191v84
q0 191 75 284q80 101 263 101q171 0 251 -96t80 -312q0 -164 -39 -246q-36 -75 -114 -101q92 -23 128 -107q35 -81 35 -243q0 -250 -78 -351q-79 -102 -266 -102z" />
    <glyph glyph-name="four.fitted" horiz-adv-x="868" 
d="M499 0v255h-432v135l254 1131h195l-244 -1082h227v439h186v-439h116v-184h-116v-255h-186z" />
    <glyph glyph-name="five.fitted" horiz-adv-x="868" 
d="M429 -18q-176 0 -259 94q-76 86 -76 256v118h191v-116q0 -169 141 -169q54 0 84.5 17t46.5 56q24 59 24 275q0 192 -27 254q-15 34 -42.5 48.5t-72.5 14.5q-63 0 -103 -31t-52 -91v-34h-190l21 847h609v-184h-421l-16 -419q56 90 212 90q90 0 144 -26.5t84 -85.5
q28 -57 38 -148.5t10 -239.5q0 -304 -81 -418q-41 -58 -105 -83t-160 -25z" />
    <glyph glyph-name="six.fitted" horiz-adv-x="868" 
d="M434 -18q-141 0 -221 66q-70 56 -96 163q-21 80 -21 214v674q0 135 21 215q26 106 96 162q80 64 219 64q137 0 216 -63q65 -54 92 -153q20 -75 20 -184v-56h-191v43q0 101 -18 150q-30 80 -118 80q-94 0 -125 -81q-20 -53 -20 -190v-231q50 136 199 137q122 0 192 -65
q57 -55 79 -165q14 -77 14 -215v-121q0 -208 -57 -307q-79 -137 -281 -137zM434 165q95 0 128 86q20 54 20 188v95q0 128 -18 184q-29 90 -119 90q-98 0 -132 -83q-25 -62 -25 -192v-137q0 -109 22 -157q32 -74 124 -74z" />
    <glyph glyph-name="seven.fitted" horiz-adv-x="868" 
d="M241 0l353 1337h-348v-185h-177v369h729v-147l-356 -1374h-201z" />
    <glyph glyph-name="eight.fitted" horiz-adv-x="868" 
d="M434 -18q-195 0 -274 120q-63 95 -63 287v53q0 135 28 212q30 88 107 133q-70 43 -99 131q-25 76 -25 186v26q0 191 56 284q76 126 270 126q196 0 272 -126q55 -91 55 -285v-28q0 -107 -25 -179q-33 -91 -106 -135q79 -44 113 -134q29 -79 29 -193v-70q0 -194 -64 -289
q-80 -119 -274 -119zM434 881q89 0 118 76q18 46 18 142v17q0 122 -15 165q-28 76 -121 76q-92 0 -119 -75q-16 -42 -16 -165v-17q0 -100 17 -143q29 -76 118 -76zM434 165q92 0 124 68q24 50 24 170v48q0 112 -21 165q-34 81 -127 81q-92 0 -125 -81q-21 -53 -21 -166v-48
q0 -117 19 -163q30 -74 127 -74z" />
    <glyph glyph-name="nine.fitted" horiz-adv-x="868" 
d="M436 -17q-138 0 -215 64q-65 53 -92 153q-20 74 -20 183v56h190v-43q0 -100 19 -149q32 -81 117 -81q94 0 127 82q20 53 20 189v231q-24 -66 -69 -100q-51 -37 -131 -37q-179 0 -242 139q-44 96 -44 306v121q0 206 57 307q78 137 281 137q141 0 222 -65q68 -56 96 -164
q20 -83 20 -214v-674q0 -135 -20 -215q-28 -108 -96 -162q-80 -64 -220 -64zM424 714q96 0 132 84q26 60 26 191v134q0 109 -21 159q-34 76 -127 76q-94 0 -126 -85q-20 -55 -20 -189v-96q0 -131 17 -183q29 -91 119 -91z" />
    </font>
</defs>
</svg>
